Harry Potter And The Prisoner Of Azkaban (2004) X 1600 (2160p) HDR 5 1 X265 10bit Phun Psyz

Torrent Details


Harry Potter and the Prisoner of Azkaban (2004) x 1600 (2160p) HDR 5 1 x265 10bit Phun Psyz

NAME
Harry Potter and the Prisoner of Azkaban (2004) x 1600 (2160p) HDR 5 1 x265 10bit Phun Psyz.torrent
CATEGORY
Movies
INFOHASH
79136859951ee8bf4f6c49df97b0a74a3bd4d2cf
SIZE
5.4 GB in 1 file
ADDED
Uploaded on 24-10-2018 by our crawler pet called "Spidey".
SWARM
0 seeders & 0 peers
RATING
No votes yet.

Please login to vote for this torrent.


Description

www.imdb.com/title/tt0304141/

It's Harry's third year at Hogwarts; not only does he have a new "Defense Against the Dark Arts" teacher, but there is also trouble brewing. Convicted murderer Sirius Black has escaped the Wizards' Prison and is coming after Harry.

Source: HDR



Format : Matroska
Format version : Version 4 / Version 2
File size : 5.37 GiB
Duration : 2 h 21 min
Overall bit rate : 5 429 kb/s

Video
ID : 1
Format : HEVC
Format/Info : High Efficiency Video Coding
Format profile : Main [email protected]@High
Codec ID : V_MPEGH/ISO/HEVC
Duration : 2 h 21 min
Bit rate : 5 001 kb/s
Width : 3 840 pixels
Height : 1 600 pixels
Display aspect ratio : 2.40:1
Frame rate mode : Constant
Frame rate : 23.976 (24000/1001) FPS
Color space : YUV
Chroma subsampling : 4:2:0
Bit depth : 10 bits
Bits/(Pixel*Frame) : 0.034
Stream size : 4.95 GiB (92%)
Writing library : x265 2.6:[Windows][GCC 7.1.0][64 bit] 10bit

Audio
ID : 2
Format : AC-3
Format/Info : Audio Coding 3
Format settings, Endianness : Big
Codec ID : A_AC3
Duration : 2 h 21 min
Bit rate mode : Constant
Bit rate : 320 kb/s
Channel(s) : 6 channels
Channel positions : Front: L C R, Side: L R, LFE
Sampling rate : 48.0 kHz
Frame rate : 31.250 FPS (1536 SPF)
Bit depth : 16 bits
Compression mode : Lossy
Stream size : 324 MiB (6%)
Title : Surround
Language : English

Text
Language : English
Language : French
Language : German
Language : Italian
Language : Spanish
Language : Spanish
Language : Portuguese
Language : Japanese
Default : No
Forced : No

Discussion

Comments 0

Post Your Comment

Files in this torrent

FILENAMESIZE
Harry Potter and the Prisoner of Azkaban (2004) x 1600 (2160p) HDR 5.1 x265 10bit Phun Psyz.mkv5.4 GB

Alternative Torrents for 'Harry Potter and Prisoner of Azkaban p HDR bit Phun Psyz'.

There are no alternative torrents found.