Evan Almighty 2007 BluRay 720p X264 [Hindi Org-English] - Hon3yHD

Torrent Details

Evan Almighty 2007 BluRay 720p x264  [Hindi Org-English] - Hon3yHD

NAME
Evan Almighty 2007 BluRay 720p x264 [Hindi Org-English] - Hon3yHD.torrent
CATEGORY
Movies
INFOHASH
0287810823590613691f83990e02783844bc8b8a
SIZE
1016 MB in 3 files
ADDED
Uploaded on 24-10-2018 by our crawler pet called "Spidey".
SWARM
0 seeders & 0 peers
RATING
No votes yet.

Please login to vote for this torrent.


Description

https://www.imdb.com/title/tt0413099/

Format : Matroska
Format version : Version 4 / Version 2
File size : 1 016 MiB
Duration : 1 h 35 min
Overall bit rate : 1 484 kb/s

Video
ID : 1
Format : AVC
Format/Info : Advanced Video Codec
Format profile : [email protected]
Format settings : CABAC / 8 Ref Frames
Format settings, CABAC : Yes
Format settings, ReFrames : 8 frames
Codec ID : V_MPEG4/ISO/AVC
Duration : 1 h 35 min
Bit rate : 1 200 kb/s
Width : 1 280 pixels
Height : 544 pixels
Display aspect ratio : 2.35:1
Frame rate mode : Constant
Frame rate : 23.976 (24000/1001) FPS

Audio #1
ID : 2
Format : AAC
Format/Info : Advanced Audio Codec
Format profile : LC
Codec ID : A_AAC-2
Duration : 1 h 35 min
Bit rate : 128 kb/s
Channel(s) : 2 channels
Channel positions : Front: L R
Sampling rate : 48.0 kHz
Frame rate : 46.875 FPS (1024 SPF)
Compression mode : Lossy
Delay relative to video : 999 ms
Stream size : 87.6 MiB (9%)
Title : Stereo
Language : Hindi

Audio #2
ID : 3
Format : AAC
Format/Info : Advanced Audio Codec
Format profile : LC
Codec ID : A_AAC-2
Duration : 1 h 35 min
Bit rate : 128 kb/s
Channel(s) : 2 channels
Channel positions : Front: L R
Sampling rate : 48.0 kHz
Frame rate : 46.875 FPS (1024 SPF)
Compression mode : Lossy
Delay relative to video : -21 ms
Stream size : 87.6 MiB (9%)
Title : Stereo
Language : English

https://hon3yhd.net

Discussion

Comments 0

Post Your Comment

Files in this torrent

FILENAMESIZE
Evan.Almighty.2007.BluRay.720p.x264.{Dual.Audio}.[Hindi Org-English].-.Hon3yHD.mkv1015.7 MB
Hon3yHD.net.txt82 B
Torrent Seed By www.cyber-planet.in.txt94 B

Alternative Torrents for 'Evan Almighty BluRay Hindi OrgEnglish HonyHD'.

There are no alternative torrents found.