Rust And Bone (2012) + Extras (1080p BluRay X265 HEVC 10bit AAC 5.1 French Silence)

Torrent Details


Rust and Bone (2012) + Extras (1080p BluRay x265 HEVC 10bit AAC 5.1 French Silence)

NAME
Rust and Bone (2012) + Extras (1080p BluRay x265 HEVC 10bit AAC 5.1 French Silence).torrent
CATEGORY
Movies
INFOHASH
21fa397f88a1c9d8ea63fa6e1bf388ddeddd4af0
SIZE
5.4 GB in 11 files
ADDED
Uploaded on 30-10-2018 by our crawler pet called "Spidey".
SWARM
0 seeders & 0 peers
RATING
No votes yet.

Please login to vote for this torrent.


Description





https://www.imdb.com/title/tt2053425/



Encode Screenshots (Click for full quality)











Media Information

General

Format                                   : Matroska

Format version                           : Version 4 / Version 2

File size                                : 3.88 GiB

Duration                                 : 2 h 2 min

Overall bit rate                         : 4 537 kb/s

Movie name                               : Rust and Bone

Encoded date                             : UTC 2018-10-28 21:22:26

Writing application                      : mkvmerge v20.0.0 ('I Am The Sun') 64-bit

Writing library                          : libebml v1.3.5 + libmatroska v1.4.8

Writing frontend                         : StaxRip v1.7.0.6



Video

ID                                       : 1

Format                                   : HEVC

Format/Info                              : High Efficiency Video Coding

Format profile                           : Main [email protected]@Main

Codec ID                                 : V_MPEGH/ISO/HEVC

Duration                                 : 2 h 2 min

Bit rate                                 : 3 997 kb/s

Width                                    : 1 920 pixels

Height                                   : 800 pixels

Display aspect ratio                     : 2.40:1

Frame rate mode                          : Constant

Frame rate                               : 23.976 (24000/1001) FPS

Color space                              : YUV

Chroma subsampling                       : 4:2:0

Bit depth                                : 10 bits

Bits/(Pixel*Frame)                       : 0.109

Stream size                              : 3.42 GiB (88%)

Writing library                          : x265 2.9+1-169e76b6bbcc:[Windows][MSVC 1900][64 bit] 10bit

Encoding settings                        : cpuid=1111039 / frame-threads=4 / numa-pools=16 / wpp / no-pmode / no-pme / no-psnr / no-ssim / log-level=2 / input-csp=1 / input-res=1920x800 / interlace=0 / total-frames=176088 / level-idc=0 / high-tier=1 / uhd-bd=0 / ref=5 / no-allow-non-conformance / no-repeat-headers / annexb / no-aud / no-hrd / info / hash=0 / no-temporal-layers / open-gop / min-keyint=23 / keyint=250 / gop-lookahead=0 / bframes=8 / b-adapt=2 / b-pyramid / bframe-bias=0 / rc-lookahead=80 / lookahead-slices=4 / scenecut=40 / radl=0 / no-intra-refresh / ctu=64 / min-cu-size=8 / rect / no-amp / max-tu-size=32 / tu-inter-depth=1 / tu-intra-depth=1 / limit-tu=0 / rdoq-level=2 / dynamic-rd=0.00 / no-ssim-rd / signhide / no-tskip / nr-intra=0 / nr-inter=0 / no-constrained-intra / strong-intra-smoothing / max-merge=3 / limit-refs=3 / limit-modes / me=3 / subme=5 / merange=57 / temporal-mvp / weightp / no-weightb / no-analyze-src-pics / deblock=-3:-3 / no-sao / no-sao-non-deblock / rd=4 / no-early-skip / rskip / no-fast-intra / no-tskip-fast / no-cu-lossless / no-b-intra / no-splitrd-skip / rdpenalty=0 / psy-rd=2.00 / psy-rdoq=1.00 / no-rd-refine / no-lossless / cbqpoffs=0 / crqpoffs=0 / rc=abr / bitrate=4000 / qcomp=0.60 / qpstep=4 / stats-write=0 / stats-read=2 / cplxblur=20.0 / qblur=0.5 / ipratio=1.40 / pbratio=1.30 / aq-mode=3 / aq-strength=1.00 / cutree / zone-count=0 / no-strict-cbr / qg-size=32 / no-rc-grain / qpmax=69 / qpmin=0 / no-const-vbv / sar=0 / overscan=0 / videoformat=5 / range=0 / colorprim=2 / transfer=2 / colormatrix=2 / chromaloc=0 / display-window=0 / max-cll=0,0 / min-luma=0 / max-luma=1023 / log2-max-poc-lsb=8 / vui-timing-info / vui-hrd-info / slices=1 / no-opt-qp-pps / no-opt-ref-list-length-pps / no-multi-pass-opt-rps / scenecut-bias=0.05 / no-opt-cu-delta-qp / no-aq-motion / no-hdr / no-hdr-opt / no-dhdr10-opt / no-idr-recovery-sei / analysis-reuse-level=5 / scale-factor=0 / refine-intra=0 / refine-inter=0 / refine-mv=0 / no-limit-sao / ctu-info=0 / no-lowpass-dct / refine-mv-type=0 / copy-pic=1 / max-ausize-factor=1.0 / no-dynamic-refine / no-single-sei

Default                                  : Yes

Forced                                   : No



Audio #1

ID                                       : 2

Format                                   : AAC

Format/Info                              : Advanced Audio Codec

Format profile                           : LC

Codec ID                                 : A_AAC

Duration                                 : 2 h 2 min

Bit rate                                 : 419 kb/s

Channel(s)                               : 6 channels

Channel positions                        : Front: L C R, Side: L R, LFE

Sampling rate                            : 48.0 kHz

Frame rate                               : 46.875 FPS (1024 spf)

Compression mode                         : Lossy

Delay relative to video                  : 20 ms

Stream size                              : 366 MiB (9%)

Language                                 : French

Default                                  : Yes

Forced                                   : No



Audio #2

ID                                       : 3

Format                                   : AAC

Format/Info                              : Advanced Audio Codec

Format profile                           : HE-AAC / LC

Codec ID                                 : A_AAC

Duration                                 : 2 h 2 min

Bit rate                                 : 80.0 kb/s

Channel(s)                               : 2 channels

Channel positions                        : Front: L R

Sampling rate                            : 48.0 kHz / 24.0 kHz

Frame rate                               : 23.438 FPS (1024 spf)

Compression mode                         : Lossy

Delay relative to video                  : 40 ms

Stream size                              : 70.0 MiB (2%)

Language                                 : French

Default                                  : No

Forced                                   : No



Subtitle #1

ID                                       : 4

Format                                   : PGS

Muxing mode                              : zlib

Codec ID                                 : S_HDMV/PGS

Codec ID/Info                            : Picture based subtitle format used on BDs/HD-DVDs

Duration                                 : 2 h 1 min

Bit rate                                 : 16.0 kb/s

Count of elements                        : 2904

Stream size                              : 13.9 MiB (0%)

Language                                 : English

Default                                  : No

Forced                                   : No



Subtitle #2

ID                                       : 5

Format                                   : PGS

Muxing mode                              : zlib

Codec ID                                 : S_HDMV/PGS

Codec ID/Info                            : Picture based subtitle format used on BDs/HD-DVDs

Duration                                 : 1 h 55 min

Bit rate                                 : 13.5 kb/s

Count of elements                        : 1821

Stream size                              : 11.2 MiB (0%)

Language                                 : English

Default                                  : No

Forced                                   : No



Subtitle #3

ID                                       : 6

Format                                   : PGS

Muxing mode                              : zlib

Codec ID                                 : S_HDMV/PGS

Codec ID/Info                            : Picture based subtitle format used on BDs/HD-DVDs

Duration                                 : 1 h 52 min

Bit rate                                 : 16.7 kb/s

Count of elements                        : 1783

Stream size                              : 13.4 MiB (0%)

Language                                 : French

Default                                  : No

Forced                                   : No



Subtitle #4

ID                                       : 7

Format                                   : PGS

Muxing mode                              : zlib

Codec ID                                 : S_HDMV/PGS

Codec ID/Info                            : Picture based subtitle format used on BDs/HD-DVDs

Duration                                 : 1 h 56 min

Bit rate                                 : 48.5 kb/s

Count of elements                        : 3587

Stream size                              : 40.4 MiB (1%)

Language                                 : English

Default                                  : No

Forced                                   : No



Menu

00:00:00.000                             : en:Chapter 01

00:11:15.758                             : en:Chapter 02

00:18:43.831                             : en:Chapter 03

00:24:27.174                             : en:Chapter 04

00:30:11.810                             : en:Chapter 05

00:38:07.201                             : en:Chapter 06

00:45:48.495                             : en:Chapter 07

00:54:03.573                             : en:Chapter 08

01:02:19.569                             : en:Chapter 09

01:11:06.887                             : en:Chapter 10

01:18:12.354                             : en:Chapter 11

01:21:53.325                             : en:Chapter 12

01:29:41.918                             : en:Chapter 13

01:35:45.197                             : en:Chapter 14

01:41:54.399                             : en:Chapter 15

01:49:35.819                             : en:Chapter 16



Source Information

Release : Untouched Bluray







Note from QxR:

Whilst we are happy for our releases to be re-posted on a platform we aren't on, please do so in an 'as-is' format. We ask that you do not create a new torrent, include all descriptions you see above including the QxR logo, tags, notes and screenshots. If you'd like to become a permanent poster on a website we don't post to, feel free to get in contact with a QxR member.

Discussion

Comments 0

Post Your Comment

Files in this torrent

FILENAMESIZE
Featurettes/Deleted Scenes/Clip 1.mkv8.7 MB
Featurettes/Deleted Scenes/Clip 2.mkv27.6 MB
Featurettes/Deleted Scenes/Clip 3.mkv10.3 MB
Featurettes/Deleted Scenes/Clip 4.mkv8.3 MB
Featurettes/Deleted Scenes/Clip 5.mkv10.5 MB
Featurettes/Making Rust and Bone - A Film by Antonin Peretjako.mkv1.3 GB
Featurettes/Menu Art.mkv24.6 MB
Featurettes/On the Red Carpet - Toronto International Film Festival.mkv51.5 MB
Featurettes/Theatrical Trailer.mkv48.4 MB
Featurettes/VFX Breakdown by Mikros.mkv27.9 MB
Rust and Bone (2012) (1080p BluRay x265 Silence).mkv3.9 GB

Alternative Torrents for 'Rust and Bone Extras BluRay HEVC bit AAC French Silence'.

TORRENT NAMEADDEDSIZESEEDSPEERSHEALTH
7/31/20201.1 GB1639740
7/31/20201.1 GB1543722
7/24/2020897 MB1386199
8/1/2020368 MB1223201
7/30/20201.8 GB1213223
Yesterday3.7 GB114971
8/1/2020362 MB1133247
8/2/2020920 MB1105182
7/29/20203.9 GB99985
7/30/20201009 MB986521
7/31/2020695 MB965121
Yesterday697 MB877132
7/21/2020797 MB861313
7/21/20204.1 GB84436
Today797 MB821654