ConAir 1997 720p BluRay X264 AC3-RiPRG

Torrent Details


ConAir 1997 720p BluRay x264 AC3-RiPRG

NAME
ConAir 1997 720p BluRay x264 AC3-RiPRG.torrent
CATEGORY
Movies
INFOHASH
54be3725783962b6dfb323897060d910d9e9f52f
SIZE
2.4 GB in 1 file
ADDED
Uploaded on 05-11-2018 by our crawler pet called "Spidey".
SWARM
0 seeders & 0 peers
RATING
No votes yet.

Please login to vote for this torrent.


Description

ConAir.1997.720p.BluRay.x264.AC3-RiPRG

Newly paroled ex-con and former U.S. Ranger Cameron Poe finds himself trapped in a prisoner transport plane when the passengers seize control.

https://www.imdb.com/title/tt0118880/

General

Format : Matroska
Format version : Version 4 / Version 2
File size : 2.35 GiB
Duration : 1h 55mn
Overall bit rate : 2 919 Kbps
Movie name : RiPRG

Video

Format : AVC
Format/Info : Advanced Video Codec
Format profile : [email protected]
Format settings, CABAC : Yes
Format settings, ReFrames : 4 frames
Codec ID : V_MPEG4/ISO/AVC
Duration : 1h 55mn
Bit rate : 2 500 Kbps
Width : 1 280 pixels
Height : 544 pixels
Display aspect ratio : 2.35:1
Frame rate mode : Constant
Frame rate : 23.976 fps
Color space : YUV
Chroma subsampling : 4:2:0
Bit depth : 8 bits
Scan type : Progressive
Bits/(Pixel*Frame) : 0.150
Stream size : 1.95 GiB (83%)
Writing library : x264 core 148
Default : Yes
Forced : No
Color primaries : BT.709
Transfer characteristics : BT.709
Matrix coefficients : BT.709

Audio

Format : AC-3
Format/Info : Audio Coding 3
Mode extension : CM (complete main)
Format settings, Endianness : Big
Codec ID : A_AC3
Duration : 1h 55mn
Bit rate mode : Constant
Bit rate : 448 Kbps
Channel(s) : 6 channels
Channel positions : Front: L C R, Side: L R, LFE
Sampling rate : 48.0 KHz
Bit depth : 16 bits
Compression mode : Lossy
Delay relative to video : -5ms
Stream size : 370 MiB (15%)
Title : Surround
Language : English
Default : Yes
Forced : No


Discussion

Comments 0

Post Your Comment

Files in this torrent

FILENAMESIZE
ConAir.1997.720p.BluRay.x264.AC3-RiPRG.mkv2.4 GB

Alternative Torrents for 'ConAir BluRay RiPRG'.

TORRENT NAMEADDEDSIZESEEDSPEERSHEALTH
11/5/20182.4 GB00