Harry Potter And The Chamber Of Secrets (2002) X 1600 (2160p) HDR 5 1 X265 10bit Phun Psyz

Torrent Details


Harry Potter and the Chamber of Secrets (2002) x 1600 (2160p) HDR 5 1 x265 10bit Phun Psyz

NAME
Harry Potter and the Chamber of Secrets (2002) x 1600 (2160p) HDR 5 1 x265 10bit Phun Psyz.torrent
CATEGORY
Movies
INFOHASH
ee824e9d37e6971798eebbb58aa70f87762b6391
SIZE
4 GB in 1 file
ADDED
Uploaded on 07-11-2018 by our crawler pet called "Spidey".
SWARM
0 seeders & 0 peers
RATING
No votes yet.

Please login to vote for this torrent.


Description

www.imdb.com/title/tt0295297/

Harry ignores warnings not to return to Hogwarts, only to find the school plagued by a series of mysterious attacks and a strange voice haunting him.

Source: HDR



Format : Matroska
Format version : Version 4 / Version 2
File size : 3.95 GiB
Duration : 2 h 40 min
Overall bit rate : 3 515 kb/s

Video
ID : 1
Format : HEVC
Format/Info : High Efficiency Video Coding
Format profile : Main [email protected]@High
Codec ID : V_MPEGH/ISO/HEVC
Duration : 2 h 40 min
Bit rate : 3 125 kb/s
Width : 3 840 pixels
Height : 1 600 pixels
Display aspect ratio : 2.40:1
Frame rate mode : Constant
Frame rate : 23.976 (24000/1001) FPS
Color space : YUV
Chroma subsampling : 4:2:0
Bit depth : 10 bits
Bits/(Pixel*Frame) : 0.021
Stream size : 3.51 GiB (89%)
Writing library : x265 2.6:[Windows][GCC 7.1.0][64 bit] 10bit

Audio
ID : 2
Format : AC-3
Format/Info : Audio Coding 3
Format settings, Endianness : Big
Codec ID : A_AC3
Duration : 2 h 40 min
Bit rate mode : Constant
Bit rate : 320 kb/s
Channel(s) : 6 channels
Channel positions : Front: L C R, Side: L R, LFE
Sampling rate : 48.0 kHz
Frame rate : 31.250 FPS (1536 SPF)
Bit depth : 16 bits
Compression mode : Lossy
Stream size : 368 MiB (9%)
Title : Surround
Language : English

Text
Language : English
Language : French
Language : German
Language : Italian
Language : Spanish
Language : Spanish
Language : Portuguese
Language : Polish
Language : Japanese
Default : No
Forced : No

Discussion

Comments 0

Post Your Comment

Files in this torrent

FILENAMESIZE
Harry Potter and the Chamber of Secrets (2002) x 1600 (2160p) HDR 5.1 x265 10bit Phun Psyz.mkv4 GB

Alternative Torrents for 'Harry Potter and Chamber of Secrets p HDR bit Phun Psyz'.

There are no alternative torrents found.