The Comedy Central Roast Of Bruce Willis 2018 WEB X264-TBS[rarbg]

Torrent Details

The Comedy Central Roast of Bruce Willis 2018 WEB x264<span style=color:#fc9c6d>-TBS[rarbg]</span>The Comedy Central Roast of Bruce Willis 2018 WEB x264<span style=color:#fc9c6d>-TBS[rarbg]</span>

NAME
The Comedy Central Roast of Bruce Willis 2018 WEB x264-TBS[rarbg].torrent
CATEGORY
Television
INFOHASH
3f580cc8fbd4a6fbf207beff170a7e30befa04f4
SIZE
1.1 GB in 3 files
ADDED
Uploaded on 08-11-2018 by our crawler pet called "Spidey".
SWARM
0 seeders & 0 peers
RATING
No votes yet.

Please login to vote for this torrent.


Description

The.Comedy.Central.Roast.of.Bruce.Willis.2018.WEB.x264-TBS[rartv]



Screen:

Full

MediaInfo:
Video
ID : 1
Format : AVC
Format/Info : Advanced Video Codec
Format profile : [email protected]
Format settings : CABAC / 4 Ref Frames
Format settings, CABAC : Yes
Format settings, RefFrames : 4 frames
Codec ID : V_MPEG4/ISO/AVC
Duration : 1 h 23 min
Bit rate : 1 756 kb/s
Width : 960 pixels
Height : 540 pixels
Display aspect ratio : 16:9
Frame rate mode : Constant
Frame rate : 29.970 (30000/1001) FPS
Color space : YUV
Chroma subsampling : 4:2:0
Bit depth : 8 bits
Scan type : Progressive
Bits/(Pixel*Frame) : 0.113
Stream size : 1.03 GiB (93%)
Writing library : x264 core 146
Encoding settings : cabac=1 / ref=4 / deblock=1:0:0 / analyse=0x1:0x111 / me=umh / subme=10 / psy=1 / psy_rd=1.00:0.15 / mixed_ref=1 / me_range=16 / chroma_me=1 / trellis=2 / 8x8dct=0 / cqm=0 / deadzone=21,11 / fast_pskip=1 / chroma_qp_offset=-3 / threads=24 / lookahead_threads=2 / sliced_threads=0 / nr=0 / decimate=0 / interlaced=0 / paff=0 / bluray_compat=0 / constrained_intra=0 / bframes=3 / b_pyramid=0 / b_adapt=2 / b_bias=0 / direct=3 / weightb=1 / open_gop=0 / weightp=2 / keyint=60 / keyint_min=23 / scenecut=0 / intra_refresh=0 / rc_lookahead=60 / rc=crf / mbtree=1 / crf=19.0 / qcomp=0.60 / qpmin=10 / qpmax=51 / qpstep=4 / vbv_maxrate=2000 / vbv_bufsize=4000 / crf_max=0.0 / nal_hrd=none / filler=0 / ip_ratio=1.40 / aq=1:0.80
Default : Yes
Forced : No

Audio
ID : 2
Format : AAC
Format/Info : Advanced Audio Codec
Format profile : LC
Codec ID : A_AAC-2
Duration : 1 h 23 min
Bit rate : 128 kb/s
Channel(s) : 2 channels
Channel positions : Front: L R
Sampling rate : 48.0 kHz
Frame rate : 46.875 FPS (1024 SPF)
Compression mode : Lossy
Delay relative to video : -33 ms
Stream size : 76.9 MiB (7%)
Default : Yes
Forced : No

Discussion

Comments 0

Post Your Comment

Files in this torrent

FILENAMESIZE
RARBG.txt30 B
the.comedy.central.roast.of.bruce.willis.2018.web.x264-tbs.mkv1.1 GB
the.comedy.central.roast.of.bruce.willis.2018.web.x264-tbs.nfo70 B

Alternative Torrents for 'Comedy Central Roast of Bruce Willis'.

TORRENT NAMEADDEDSIZESEEDSPEERSHEALTH
5/2/20202.9 GB00
1/1/20201.6 GB00
1/1/2020797 MB00
12/31/2019817 MB00
12/31/20195.8 GB00
12/31/20191.1 GB00
1/26/20191.9 GB00
11/8/20181.1 GB00
11/5/20182.3 GB00
8/25/20185.8 GB00
8/24/20181.1 GB00
8/24/20181.6 GB00
8/24/20182.6 GB00
8/24/20181.8 GB00
8/24/2018982 MB00