The Walking Dead S09E08 Evolution (1080p X265 10bit FS84 Joy)

Torrent Details

The Walking Dead S09E08 Evolution  (1080p x265 10bit FS84 Joy)

NAME
The Walking Dead S09E08 Evolution (1080p x265 10bit FS84 Joy).torrent
CATEGORY
Television
INFOHASH
30ad0071b7db7a0a26c30866c9fa9eab64ae0c3f
SIZE
449 MB in 1 file
ADDED
Uploaded on 27-11-2018 by our crawler pet called "Spidey".
SWARM
5 seeders & 0 peers
RATING
No votes yet.

Please login to vote for this torrent.


Description













Media Information

General

Format                                   : Matroska

Format version                           : Version 4 / Version 2

File size                                : 449 MiB

Duration                                 : 44 min 14 s

Overall bit rate                         : 1 418 kb/s

Movie name                               : The Walking Dead S09E08 Evolution  (1080p x265 10bit FS84 Joy)[UTR]

Encoded date                             : UTC 2018-11-27 02:21:04

Writing application                      : mkvmerge v28.2.0 ('The Awakening') 64-bit

Writing library                          : libebml v1.3.6 + libmatroska v1.4.9

Writing frontend                         : StaxRip v1.8.2.0



Video

ID                                       : 1

Format                                   : HEVC

Format/Info                              : High Efficiency Video Coding

Format profile                           : Main [email protected]@Main

Codec ID                                 : V_MPEGH/ISO/HEVC

Duration                                 : 44 min 14 s

Bit rate                                 : 1 196 kb/s

Width                                    : 1 920 pixels

Height                                   : 1 080 pixels

Display aspect ratio                     : 16:9

Frame rate mode                          : Constant

Frame rate                               : 23.976 (24000/1001) FPS

Color space                              : YUV

Chroma subsampling                       : 4:2:0

Bit depth                                : 10 bits

Bits/(Pixel*Frame)                       : 0.024

Stream size                              : 378 MiB (84%)

Writing library                          : x265 2.8+19-bcdc610cf5f0:[Windows][MSVC 1914][64 bit] 10bit

Encoding settings                        : cpuid=1111039 / frame-threads=3 / numa-pools=8 / wpp / no-pmode / no-pme / no-psnr / ssim / log-level=2 / input-csp=1 / input-res=1920x1080 / interlace=0 / total-frames=63652 / level-idc=0 / high-tier=1 / uhd-bd=0 / ref=4 / no-allow-non-conformance / no-repeat-headers / annexb / no-aud / no-hrd / info / hash=0 / no-temporal-layers / open-gop / min-keyint=23 / keyint=250 / gop-lookahead=0 / bframes=4 / b-adapt=2 / b-pyramid / bframe-bias=0 / rc-lookahead=80 / lookahead-slices=4 / scenecut=40 / radl=0 / no-intra-refresh / ctu=64 / min-cu-size=8 / no-rect / no-amp / max-tu-size=32 / tu-inter-depth=1 / tu-intra-depth=1 / limit-tu=0 / rdoq-level=2 / dynamic-rd=0.00 / ssim-rd / signhide / no-tskip / nr-intra=0 / nr-inter=0 / no-constrained-intra / strong-intra-smoothing / max-merge=3 / limit-refs=3 / limit-modes / me=3 / subme=3 / merange=57 / temporal-mvp / weightp / no-weightb / no-analyze-src-pics / deblock=0:0 / sao / no-sao-non-deblock / rd=4 / no-early-skip / rskip / no-fast-intra / no-tskip-fast / no-cu-lossless / no-b-intra / no-splitrd-skip / rdpenalty=0 / psy-rd=0.00 / psy-rdoq=1.50 / no-rd-refine / no-lossless / cbqpoffs=0 / crqpoffs=0 / rc=abr / bitrate=1200 / qcomp=0.60 / qpstep=4 / stats-write=0 / stats-read=2 / cplxblur=20.0 / qblur=0.5 / vbv-maxrate=3600 / vbv-bufsize=6200 / vbv-init=0.9 / ipratio=1.40 / pbratio=1.30 / aq-mode=3 / aq-strength=0.80 / cutree / zone-count=0 / no-strict-cbr / qg-size=32 / no-rc-grain / qpmax=69 / qpmin=0 / no-const-vbv / sar=0 / overscan=0 / videoformat=5 / range=0 / colorprim=2 / transfer=2 / colormatrix=2 / chromaloc=0 / display-window=0 / max-cll=0,0 / min-luma=0 / max-luma=1023 / log2-max-poc-lsb=8 / vui-timing-info / vui-hrd-info / slices=1 / no-opt-qp-pps / no-opt-ref-list-length-pps / multi-pass-opt-rps / scenecut-bias=0.05 / no-opt-cu-delta-qp / no-aq-motion / no-hdr / no-hdr-opt / no-dhdr10-opt / no-idr-recovery-sei / analysis-reuse-level=10 / scale-factor=0 / refine-intra=0 / refine-inter=0 / refine-mv=0 / limit-sao / ctu-info=0 / no-lowpass-dct / refine-mv-type=0 / copy-pic=1 / max-ausize-factor=1.0 / no-dynamic-refine / no-single-sei

Default                                  : Yes

Forced                                   : No



Audio

ID                                       : 2

Format                                   : AAC

Format/Info                              : Advanced Audio Codec

Format profile                           : HE-AACv2 / HE-AAC / LC

Codec ID                                 : A_AAC

Duration                                 : 44 min 14 s

Bit rate                                 : 221 kb/s

Channel(s)                               : 6 channels

Channel(s)_Original                      : 2 channels / 20 channels / 20 channels

Channel positions                        : Front: L R / , Side: 11, Back: 9 / , Side: 11, Back: 9

Sampling rate                            : 48.0 kHz / 48.0 kHz / 24.0 kHz

Frame rate                               : 23.438 FPS (1024 spf)

Compression mode                         : Lossy

Delay relative to video                  : 31 ms

Stream size                              : 69.9 MiB (16%)

Language                                 : English

Default                                  : No

Forced                                   : No



Subtitle #1

ID                                       : 3

Format                                   : UTF-8

Codec ID                                 : S_TEXT/UTF8

Codec ID/Info                            : UTF-8 Plain Text

Duration                                 : 44 min 1 s

Bit rate                                 : 53 b/s

Count of elements                        : 704

Stream size                              : 17.3 KiB (0%)

Language                                 : English

Default                                  : No

Forced                                   : No



Subtitle #2

ID                                       : 4

Format                                   : UTF-8

Codec ID                                 : S_TEXT/UTF8

Codec ID/Info                            : UTF-8 Plain Text

Duration                                 : 44 min 4 s

Bit rate                                 : 61 b/s

Count of elements                        : 854

Stream size                              : 19.7 KiB (0%)

Language                                 : English

Default                                  : No

Forced                                   : No



Source Information

Release: The.Walking.Dead.S09E08.Evolution.1080p.AMZN.WEB-DL.DD+5.1.H.264-CasStudio.mkv (4.39 GBs)

Discussion

Comments 0

Post Your Comment

Files in this torrent

FILENAMESIZE
The Walking Dead S09E08 Evolution (1080p x265 10bit FS84 Joy).mkv448.9 MB

Alternative Torrents for 'Walking Dead Evolution bit FS Joy'.

There are no alternative torrents found.