Warning! Do NOT Download Without a VPN!
Your IP Address is .   Location is United States
Your Internet Provider and Government can track your download activities! Hide your IP ADDRESS with a VPN!
We strongly recommend using a VPN service to anonymize your torrent downloads. It's FREE!
START YOUR FREE TRIAL NOW!

18+ Nemesis 5 2018 HDRip XviD AC3

Torrent Details

18+ Nemesis 5 2018 HDRip XviD AC3

NAME
18+ Nemesis 5 2018 HDRip XviD AC3.torrent
CATEGORY
Movies
INFOHASH
868072e4900e68c3a2ec9adf3b8edfa157d9cf06
SIZE
715 MB in 2 files
ADDED
Uploaded on 23-12-2018 by our crawler pet called "Spidey".
SWARM
0 seeders & 0 peers
RATING
No votes yet.

Please login to vote for this torrent.


Description

Quote:



******************************Thumbnail:**********************







******************************Screenshots:********************



Screenshot 1



Screenshot 2



Screenshot 3



Screenshot 4



Screenshot 5



Screenshot 6



Screenshot 7



Screenshot 8



Screenshot 9



Screenshot 0





******************************************************



18+.Nemesis 5.2018.HDRip.XviD.AC3.LLG.mp4

Format                                   : MPEG-4

Format profile                           : Base Media

Codec ID                                 : isom (isom/iso2/avc1/mp41)

File size                                : 710 MiB

Duration                                 : 1 h 10 min

Overall bit rate mode                    : Variable

Overall bit rate                         : 1 403 kb/s

Writing application                      : Lavf57.83.100



Video

ID                                       : 1

Format                                   : AVC

Format/Info                              : Advanced Video Codec

Format profile                           : [email protected]

Format settings                          : CABAC / 1 Ref Frames

Format settings, CABAC                   : Yes

Format settings, RefFrames               : 1 frame

Codec ID                                 : avc1

Codec ID/Info                            : Advanced Video Coding

Duration                                 : 1 h 10 min

Bit rate mode                            : Variable

Bit rate                                 : 1 208 kb/s

Maximum bit rate                         : 3 600 kb/s

Width                                    : 720 pixels

Height                                   : 320 pixels

Display aspect ratio                     : 2.25:1

Frame rate mode                          : Constant

Frame rate                               : 23.976 (23976/1000) FPS

Color space                              : YUV

Chroma subsampling                       : 4:2:0

Bit depth                                : 8 bits

Scan type                                : Progressive

Bits/(Pixel*Frame)                       : 0.219

Stream size                              : 611 MiB (86%)

Codec configuration box                  : avcC



Audio

ID                                       : 2

Format                                   : AC-3

Format/Info                              : Audio Coding 3

Commercial name                          : Dolby Digital

Codec ID                                 : ac-3

Duration                                 : 1 h 10 min

Bit rate mode                            : Constant

Bit rate                                 : 192 kb/s

Channel(s)                               : 6 channels

Channel layout                           : L R C LFE Ls Rs

Sampling rate                            : 48.0 kHz

Frame rate                               : 31.250 FPS (1536 SPF)

Bit depth                                : 16 bits

Compression mode                         : Lossy

Stream size                              : 97.1 MiB (14%)

Service kind                             : Complete Main

Default                                  : Yes

Alternate group                          : 1





******************************************************

Discussion

Comments 0

Post Your Comment

Files in this torrent

FILENAMESIZE
18+.Nemesis 5.2018.HDRip.XviD.AC3.LLG.mp4709.6 MB
SAMPLE.ts5.8 MB

Alternative Torrents for 'Nemesis AC'.

TORRENT NAME ADDED SIZE SEEDS PEERS HEALTH
3/24/2019 2.3 GB 1 1
1/5/2018 2.4 GB 0 0
10/23/2018 2.4 GB 0 0