Train To Busan (2016) 1080p BluRay X264 Dual Audio [Hindi DD 5.1 - English DD 5.1] - ESub ~ Ranvijay

Torrent Details


Train to Busan (2016) 1080p BluRay x264 Dual Audio [Hindi DD 5.1 - English DD 5.1] - ESub ~ Ranvijay

NAME
Train to Busan (2016) 1080p BluRay x264 Dual Audio [Hindi DD 5.1 - English DD 5.1] - ESub ~ Ranvijay.torrent
CATEGORY
Movies
INFOHASH
9d01dc35c169beba4a0e2fcf73f90ce4c259c2bd
SIZE
4.7 GB in 2 files
ADDED
Uploaded on 15-01-2019 by our crawler pet called "Spidey".
SWARM
0 seeders & 0 peers
RATING
No votes yet.

Please login to vote for this torrent.


Description





Join My Facebook Group

Train to Busan (2016) 1080p BluRay x264 Dual Audio [Hindi DD5.1 - English DD5.1] - ESub ~ Ranvijay


Thanks To Titan For Hindi Audio

Buy RDP Online




Format : Matroska
Format version : Version 4 / Version 2
File size : 4.63 GiB
Duration : 1 h 58 min
Overall bit rate : 5 616 kb/s
Movie name : Train to Busan (2016) 1080p BluRay x264 Dual Audio [Hindi DD5.1 - English DD5.1] - ESub ~ Ranvijay

Video
ID : 1
Format : AVC
Format/Info : Advanced Video Codec
Format profile : [email protected]
Duration : 1 h 58 min
Bit rate : 5 000 kb/s
Width : 1 920 pixels
Height : 1 080 pixels
Display aspect ratio : 16:9
Frame rate mode : Constant
Frame rate : 23.976 (24000/1001) FPS
Color space : YUV
Chroma subsampling : 4:2:0
Bit depth : 8 bits
Scan type : Progressive
Bits/(Pixel*Frame) : 0.101
Stream size : 4.13 GiB (89%)
Title : ~Ranvijay~

Audio #1
ID : 2
Format : AC-3
Format/Info : Audio Coding 3
Codec ID : A_AC3
Duration : 1 h 58 min
Bit rate mode : Constant
Bit rate : 224 kb/s
Channel(s) : 6 channels
Channel positions : Front: L C R, Side: L R, LFE
Sampling rate : 48.0 kHz
Frame rate : 31.250 FPS (1536 SPF)
Bit depth : 16 bits
Compression mode : Lossy
Stream size : 189 MiB (4%)
Title : ~Ranvijay~
Language : Hindi
Service kind : Complete Main
Default : Yes
Forced : Yes

Audio #2
ID : 3
Format : AC-3
Format/Info : Audio Coding 3
Codec ID : A_AC3
Duration : 1 h 58 min
Bit rate mode : Constant
Bit rate : 384 kb/s
Channel(s) : 6 channels
Channel positions : Front: L C R, Side: L R, LFE
Sampling rate : 48.0 kHz
Frame rate : 31.250 FPS (1536 SPF)
Bit depth : 16 bits
Compression mode : Lossy
Stream size : 324 MiB (7%)
Title : ~Ranvijay~
Language : English
Service kind : Complete Main
Default : No
Forced : No

Text #1
ID : 4
Format : PGS
Muxing mode : zlib
Codec ID : S_HDMV/PGS
Codec ID/Info : Picture based subtitle format used on BDs/HD-DVDs
Duration : 1 h 53 min
Bit rate : 14.7 kb/s
Count of elements : 1725
Stream size : 12.0 MiB (0%)
Title : ~Ranvijay~
Language : English
Default : Yes
Forced : Yes

Text #2
ID : 5
Format : UTF-8
Codec ID : S_TEXT/UTF8
Codec ID/Info : UTF-8 Plain Text
Duration : 1 h 53 min
Bit rate : 22 b/s
Count of elements : 863
Stream size : 18.4 KiB (0%)
Title : ~Ranvijay~
Language : English
Default : No
Forced : No

Menu
00:00:00.000 : en:00:00:00.000
00:11:02.533 : en:00:11:02.533
00:19:35.212 : en:00:19:35.212
00:29:38.442 : en:00:29:38.442
00:39:13.516 : en:00:39:13.516
00:51:01.849 : en:00:51:01.849
00:59:30.023 : en:00:59:30.023
01:08:15.090 : en:01:08:15.090
01:20:56.059 : en:01:20:56.059
01:29:58.265 : en:01:29:58.265
01:38:03.542 : en:01:38:03.542
01:49:07.582 : en:01:49:07.582
















Don't walk as you are king, walk as you don't care who the king is....!!

Discussion

Comments 0

Post Your Comment

Files in this torrent

FILENAMESIZE
Sample - Train to Busan (2016) 1080p BluRay x264 Dual Audio [Hindi DD5.1 - English DD5.1] - ESub ~ Ranvijay.mkv29.5 MB
Train to Busan (2016) 1080p BluRay x264 Dual Audio [Hindi DD5.1 - English DD5.1] - ESub ~ Ranvijay.mkv4.6 GB

Alternative Torrents for 'Train to Busan BluRay Dual Audio Hindi DD English DD . ESub Ranvijay'.

There are no alternative torrents found.