[LatestHDmovies Org]-Hate Story 3 (2015) 720p WEBRip Hindi X264 AAC 5.1 ESub

Torrent Details

[LatestHDmovies Org]-Hate Story 3 (2015) 720p WEBRip Hindi x264 AAC 5.1 ESub

NAME
[LatestHDmovies Org]-Hate Story 3 (2015) 720p WEBRip Hindi x264 AAC 5.1 ESub.torrent
CATEGORY
Movies
INFOHASH
7db69d1de5187f99a35b80313e8502281ad3816a
SIZE
1.3 GB in 1 file
ADDED
Uploaded on 04-02-2019 by our crawler pet called "Spidey".
SWARM
0 seeders & 0 peers
RATING
No votes yet.

Please login to vote for this torrent.


Description

https://TellyTorrent.Net ++++++++ https://latesthdmovies.org/bollywood/hate-story-3-2015/


General
Unique ID : 256640789753554719307251740530455517214 (0xC11337DB8BC62E5E509D1E37CFAA981E)
Complete name : C:UsersJasonDocuments[LatestHDmovies.Org]-Hate.Story.3.(2015).720p.WEBRip.Hindi.x264.AAC.5.1.ESub.mkv
Format : Matroska
Format version : Version 4
File size : 1.27 GiB
Duration : 2 h 3 min
Overall bit rate : 1 470 kb/s
Movie name : Encoded By LatestHDmovies.Org
Encoded date : UTC 2019-02-04 04:39:49
Writing application : mkvmerge v29.0.0 ('Like It Or Not') 32-bit
Writing library : libebml v1.3.6 + libmatroska v1.4.9

Video
ID : 1
Format : AVC
Format/Info : Advanced Video Codec
Format profile : [email protected]
Format settings : CABAC / 4 Ref Frames
Format settings, CABAC : Yes
Format settings, RefFrames : 4 frames
Codec ID : V_MPEG4/ISO/AVC
Duration : 2 h 3 min
Bit rate : 1 149 kb/s
Width : 1 280 pixels
Height : 544 pixels
Display aspect ratio : 2.35:1
Frame rate mode : Constant
Frame rate : 25.000 FPS
Color space : YUV
Chroma subsampling : 4:2:0
Bit depth : 8 bits
Scan type : Progressive
Bits/(Pixel*Frame) : 0.066
Stream size : 1 015 MiB (78%)
Title : LatestHDmovies.Org
Writing library : x264 core 157 r2935 545de2f
Encoding settings : cabac=1 / ref=2 / deblock=1:0:0 / analyse=0x1:0x111 / me=hex / subme=6 / psy=1 / psy_rd=1.00:0.00 / mixed_ref=1 / me_range=16 / chroma_me=1 / trellis=1 / 8x8dct=0 / cqm=0 / deadzone=21,11 / fast_pskip=1 / chroma_qp_offset=-2 / threads=12 / lookahead_threads=2 / sliced_threads=0 / nr=0 / decimate=1 / interlaced=0 / bluray_compat=0 / constrained_intra=0 / bframes=3 / b_pyramid=2 / b_adapt=1 / b_bias=0 / direct=1 / weightb=1 / open_gop=0 / weightp=1 / keyint=250 / keyint_min=25 / scenecut=40 / intra_refresh=0 / rc_lookahead=30 / rc=2pass / mbtree=1 / bitrate=1149 / ratetol=1.0 / qcomp=0.60 / qpmin=0 / qpmax=69 / qpstep=4 / cplxblur=20.0 / qblur=0.5 / vbv_maxrate=14000 / vbv_bufsize=14000 / nal_hrd=none / filler=0 / ip_ratio=1.40 / aq=1:1.00
Default : Yes
Forced : No
Color range : Limited
Color primaries : BT.709
Transfer characteristics : BT.709
Matrix coefficients : BT.709

Audio
ID : 2
Format : AAC LC
Format/Info : Advanced Audio Codec Low Complexity
Codec ID : A_AAC-2
Duration : 2 h 3 min
Bit rate : 320 kb/s
Channel(s) : 6 channels
Channel layout : L R C Cb Rls Rb
Sampling rate : 48.0 kHz
Frame rate : 46.875 FPS (1024 SPF)
Compression mode : Lossy
Delay relative to video : -21 ms
Stream size : 283 MiB (22%)
Title : LatestHDmovies.Org
Language : Hindi
Default : Yes
Forced : No

Text
ID : 3
Format : UTF-8
Codec ID : S_TEXT/UTF8
Codec ID/Info : UTF-8 Plain Text
Duration : 2 h 2 min
Bit rate : 54 b/s
Count of elements : 1527
Stream size : 48.6 KiB (0%)
Title : LatestHDmovies.Org
Language : English
Default : Yes
Forced : No









Discussion

Comments 0

Post Your Comment

Files in this torrent

FILENAMESIZE
[LatestHDmovies.Org]-Hate.Story.3.(2015).720p.WEBRip.Hindi.x264.AAC.5.1.ESub.mkv1.3 GB

Alternative Torrents for 'LatestHDmovies OrgHate Story Hindi AAC ESub'.

There are no alternative torrents found.