Warning! Do NOT Download Without a VPN!
Your IP Address is .   Location is United States
Your Internet Provider and Government can track your download activities! Hide your IP ADDRESS with a VPN!
We strongly recommend using a VPN service to anonymize your torrent downloads. It's FREE!
START YOUR FREE TRIAL NOW!

18+ Between Worlds 2018 UNCENSORED Movies 720p BluRay X264 5 1 With Sample ☻rDX☻

Torrent Details

18+ Between Worlds 2018 UNCENSORED Movies 720p BluRay x264 5 1 with Sample ☻rDX☻

NAME
18+ Between Worlds 2018 UNCENSORED Movies 720p BluRay x264 5 1 with Sample ☻rDX☻.torrent
CATEGORY
Movies
INFOHASH
2cd6305a99c3508aeb62d9ea1fd8bdc85012b253
SIZE
1.2 GB in 0 files
ADDED
Uploaded on 04-02-2019 by our crawler pet called "Spidey".
SWARM
0 seeders & 0 peers
RATING
No votes yet.

Please login to vote for this torrent.


Description

18+ Between Worlds 2018 UNCENSORED Movies 720p BluRay x264 5.1 with Sample ☻rDX☻====================================================

SCREEN SHOTS:



or

https://iphonehosting.eu/2018/9/a/atm/1.html

File size : 1.19 GiB
Duration : 1 h 30 min
Overall bit rate : 1 885 kb/s
Movie name : 18+ Between Worlds 2018 UNCENSORED Movies 720p BluRay x264 5.1 ☻rDX☻

Video
ID : 2
Format : AVC
Format/Info : Advanced Video Codec
Format profile : [email protected]
Format settings, CABAC : Yes
Format settings, ReFrames : 4 frames
Codec ID : V_MPEG4/ISO/AVC
Duration : 1 h 30 min
Bit rate : 1 500 kb/s
Width : 1 280 pixels
Height : 694 pixels
Display aspect ratio : 1.85:1
Frame rate mode : Constant
Frame rate : 23.976 (23976/1000) FPS
Color space : YUV
Chroma subsampling : 4:2:0
Bit depth : 8 bits
Scan type : Progressive
Bits/(Pixel*Frame) : 0.070
Stream size : 945 MiB (78%)
Title : ☻rDX☻
Writing library : x264

Audio
ID : 1
Format : AC-3
Format/Info : Audio Coding 3
Mode extension : CM (complete main)
Format settings, Endianness : Big
Codec ID : A_AC3
Duration : 1 h 30 min
Bit rate mode : Constant
Bit rate : 384 kb/s
Channel(s) : 6 channels
Channel positions : Front: L C R, Side: L R, LFE
Sampling rate : 48.0 kHz
Frame rate : 31.250 FPS (1536 spf)
Bit depth : 16 bits
Compression mode : Lossy
Delay relative to video : -43 ms
Stream size : 248 MiB (20%)
Title : ☻rDX☻
Default : Yes
Forced : No

https://www.imdb.com/title/tt7295450

Discussion

Comments 0

Post Your Comment

Torrent Files (Unavailable)

Please check back later to get a list of all files included in this torrent.

Alternative Torrents for 'Between Worlds UNCENSORED Movies BluRay with Sample ☻rDX☻'.

TORRENT NAME ADDED SIZE SEEDS PEERS HEALTH
1/27/2019 1 GB 0 0