The Walking Dead S09E08 Evolution 1080p 5 1 - 2 0 X264 Phun Psyz

Torrent Details

The Walking Dead S09E08 Evolution 1080p 5 1 - 2 0 x264 Phun Psyz

NAME
The Walking Dead S09E08 Evolution 1080p 5 1 - 2 0 x264 Phun Psyz.torrent
CATEGORY
Television
INFOHASH
f1c1f6be5ec6cea0d732004c3020f9c26738694d
SIZE
767 MB in 1 file
ADDED
Uploaded on 09-02-2019 by our crawler pet called "Spidey".
SWARM
0 seeders & 2 peers
RATING
No votes yet.

Please login to vote for this torrent.


Description

www.imdb.com/title/tt8250824/?ref_=ttep_ep8



A small rescue mission braves a dangerous herd in their hunt for a missing comrade, only to discover a surprising threat that could doom them all.



Source: CasStudio (Amzn)















[font]Format                      : MPEG-4

Format profile              : Base Media / Version 2

Codec ID                    : mp42 (isom/iso2/avc1/mp41)

File size                   : 767 MiB

Duration                    : 44 min 14 s

Overall bit rate mode       : Variable

Overall bit rate            : 2 422 kb/s



Video

ID                          : 1

Format                      : AVC

Format/Info                 : Advanced Video Codec

Format profile              : [email protected]

Format settings             : CABAC / 1 Ref Frames

Format settings, CABAC      : Yes

Format settings, ReFrames   : 1 frame

Codec ID                    : avc1

Codec ID/Info               : Advanced Video Coding

Duration                    : 44 min 14 s

Bit rate                    : 1 934 kb/s

Width                       : 1 920 pixels

Height                      : 1 080 pixels

Display aspect ratio        : 16:9

Frame rate                  : 23.976 (24000/1001) FPS

Color space                 : YUV

Chroma subsampling          : 4:2:0

Bit depth                   : 8 bits

Scan type                   : Progressive

Bits/(Pixel*Frame)          : 0.039

Stream size                 : 612 MiB (80%)

Writing library             : x264 core 157 r2935 545de2f



Audio #1

ID                          : 2

Format                      : AC-3

Format/Info                 : Audio Coding 3

Commercial name             : Dolby Digital

Codec ID                    : ac-3

Duration                    : 44 min 14 s

Bit rate mode               : Constant

Bit rate                    : 320 kb/s

Channel(s)                  : 6 channels

Channel layout              : L R C LFE Ls Rs

Sampling rate               : 48.0 kHz

Frame rate                  : 31.250 FPS (1536 SPF)

Bit depth                   : 16 bits

Compression mode            : Lossy

Stream size                 : 101 MiB (13%)

Title                       : Surround

Language                    : English



Audio #2

ID                          : 3

Format                      : AAC LC

Format/Info                 : Advanced Audio Codec Low Complexity

Codec ID                    : mp4a-40-2

Duration                    : 44 min 14 s

Bit rate mode               : Constant

Bit rate                    : 160 kb/s

Channel(s)                  : 2 channels

Channel layout              : L R

Sampling rate               : 48.0 kHz

Frame rate                  : 46.875 FPS (1024 SPF)

Compression mode            : Lossy

Stream size                 : 50.7 MiB (7%)

Title                       : Stereo

Language                    : English



Text

Language                    : English

Default                     : Yes

Forced                      : No

Language                    : English

Default                     : No

Forced                      : No[/font]

Discussion

Comments 0

Post Your Comment

Files in this torrent

FILENAMESIZE
The Walking Dead S09E08 Evolution 1080p 5.1 - 2.0 x264 Phun Psyz.mp4766.5 MB

Alternative Torrents for 'Walking Dead Evolution Phun Psyz'.

TORRENT NAMEADDEDSIZESEEDSPEERSHEALTH
2/9/2019767 MB02