Warning! Do NOT Download Without a VPN!
Your IP Address is .   Location is United States
Your Internet Provider and Government can track your download activities! Hide your IP ADDRESS with a VPN!
We strongly recommend using a VPN service to anonymize your torrent downloads. It's FREE!
START YOUR FREE TRIAL NOW!

Border 2018 1080p BRRip X264 AC3 HORiZON-ArtSubs

Torrent Details

Border 2018 1080p BRRip x264 AC3 HORiZON-ArtSubs

NAME
Border 2018 1080p BRRip x264 AC3 HORiZON-ArtSubs.torrent
CATEGORY
Movies
INFOHASH
1456006c982d27f958d9d2947fc85a116efc3c5e
SIZE
2.4 GB in 1 file
ADDED
Uploaded on 13-02-2019 by our crawler pet called "Spidey".
SWARM
0 seeders & 0 peers
RATING
No votes yet.

Please login to vote for this torrent.


Description

Release: Border.2018.1080p.BRRip.x264.AC3.HORiZON-ArtSubs



IMDB: www.imdb.com/title/tt5501104

Plot:A customs officer who can smell fear develops an unusual attraction to a strange traveler while aiding a police investigation which will call into question her entire existence. Official submission of Sweden for the 'Best Foreign Language Film' category of the 91st Academy Awards in 2019.

General
Complete name : Border.2018.1080p.BRRip.x264.AC3.HORiZON-ArtSubs.mkv
Format : Matroska
Format version : Version 2
File size : 2.35 GiB
Duration : 1 h 45 min
Overall bit rate : 3 194 kb/s
Encoded date : UTC 2019-02-11 16:20:40
Writing application : DVDFab 10.0.8.7
Writing library : libebml v1.3.4 + libmatroska v1.4.5

Video
ID : 1
Format : AVC
Format/Info : Advanced Video Codec
Format profile : [email protected]
Format settings : CABAC / 1 Ref Frames
Format settings, CABAC : Yes
Format settings, RefFrames : 1 frame
Format settings, GOP : M=1, N=25
Codec ID : V_MPEG4/ISO/AVC
Duration : 1 h 45 min
Bit rate mode : Constant
Bit rate : 2 800 kb/s
Width : 1 920 pixels
Height : 804 pixels
Display aspect ratio : 2.40:1
Frame rate mode : Constant
Frame rate : 25.000 FPS
Color space : YUV
Chroma subsampling : 4:2:0
Bit depth : 8 bits
Scan type : Progressive
Bits/(Pixel*Frame) : 0.073
Stream size : 2.01 GiB (86%)
Default : Yes
Forced : No
Color range : Limited
Color primaries : BT.709
Transfer characteristics : BT.709
Matrix coefficients : BT.709

Audio
ID : 2
Format : AC-3
Format/Info : Audio Coding 3
Codec ID : A_AC3
Duration : 1 h 45 min
Bit rate mode : Constant
Bit rate : 448 kb/s
Channel(s) : 6 channels
Channel positions : Front: L C R, Side: L R, LFE
Sampling rate : 48.0 kHz
Frame rate : 31.250 FPS (1536 SPF)
Bit depth : 16 bits
Compression mode : Lossy
Stream size : 338 MiB (14%)
Language : Swedish
Service kind : Complete Main
Default : Yes
Forced : No

Text
ID : 3
Format : PGS
Codec ID : S_HDMV/PGS
Codec ID/Info : Picture based subtitle format used on BDs/HD-DVDs
Duration : 1 h 43 min
Bit rate : 8 739 b/s
Count of elements : 1134
Stream size : 6.45 MiB (0%)
Language : English
Default : No
Forced : No

SCREENSHOTS:




Discussion

Comments 0

Post Your Comment

Files in this torrent

FILENAMESIZE
Border.2018.1080p.BRRip.x264.AC3.HORiZON-ArtSubs.mkv2.4 GB

Alternative Torrents for 'Border AC HORiZONArtSubs'.

TORRENT NAME ADDED SIZE SEEDS PEERS HEALTH
Today 907 MB 687 407
6/5/2019 1.4 GB 252 13
5/16/2019 695 MB 201 6
6/6/2019 883 MB 197 16
6/7/2019 5.8 GB 188 6
6/15/2019 3.5 GB 158 121
6/5/2019 723 MB 148 17
5/19/2019 1.9 GB 116 4
3/27/2019 2.9 GB 106 24
6/7/2019 251 MB 105 4
5/15/2019 1.9 GB 95 1
6/6/2019 250 MB 89 9
4/23/2019 1.5 GB 86 2
5/13/2019 2 GB 74 0
6/15/2019 2.9 GB 69 74