Warning! Do NOT Download Without a VPN!
Your IP Address is .   Location is United States
Your Internet Provider and Government can track your download activities! Hide your IP ADDRESS with a VPN!
We strongly recommend using a VPN service to anonymize your torrent downloads. It's FREE!
START YOUR FREE TRIAL NOW!

Black Panther (2018)

Torrent Details

Black Panther (2018)

NAME
Black Panther (2018).torrent
CATEGORY
Movies
INFOHASH
dc316cc0e9254c71f7e01515c2189a734d388c0c
SIZE
2.8 GB in 1 file
ADDED
Uploaded on 21-02-2019 by our crawler pet called "Spidey".
SWARM
0 seeders & 0 peers
RATING
No votes yet.

Please login to vote for this torrent.


Description

Black Panther
T'Challa, heir to the hidden but advanced kingdom of Wakanda, must step forward to lead his people into a new future and must confront a challenger from his country's past.








General
Format :MPEG-4
Format profile :Base Media / Version 2
Codec ID :mp42 (isom/iso2/avc1/mp41)
File size :2.84 GiB
Duration :2 h 14 min
Overall bit rate mode :Variable
Overall bit rate :3 017 kb/s
Writing application :HandBrake 1.1.0 2018040700

Video
ID :1
Format :AVC
Format/Info :Advanced Video Codec
Format profile :[email protected]
Format settings :CABAC / 4 Ref Frames
Format settings, CABAC :Yes
Format settings, RefFrames :4 frames
Codec ID :avc1
Codec ID/Info :Advanced Video Coding
Duration :2 h 14 min
Bit rate :2 862 kb/s
Width :1 920 pixels
Height :800 pixels
Display aspect ratio :2.40:1
Frame rate mode :Variable
Frame rate :23.976 (24000/1001) FPS
Minimum frame rate :23.974 FPS
Maximum frame rate :23.981 FPS
Color space :YUV
Chroma subsampling :4:2:0
Bit depth :8 bits
Scan type :Progressive
Bits/(Pixel*Frame) :0.078
Stream size :2.69 GiB (95%)
Writing library :x264 core 155 r2893 b00bcaf
Encoding settings :cabac=1 / ref=2 / deblock=1:0:0 / analyse=0x1:0x111 / me=hex / subme=6 / psy=1 / psy_rd=1.00:0.00 / mixed_ref=1 / me_range=16 / chroma_me=1 / trellis=1 / 8x8dct=0 / cqm=0 / deadzone=21,11 / fast_pskip=1 / chroma_qp_offset=-2 / threads=12 / lookahead_threads=2 / sliced_threads=0 / nr=0 / decimate=1 / interlaced=0 / bluray_compat=0 / constrained_intra=0 / bframes=3 / b_pyramid=2 / b_adapt=1 / b_bias=0 / direct=1 / weightb=1 / open_gop=0 / weightp=1 / keyint=240 / keyint_min=24 / scenecut=40 / intra_refresh=0 / rc_lookahead=30 / rc=crf / mbtree=1 / crf=22.0 / qcomp=0.60 / qpmin=0 / qpmax=69 / qpstep=4 / vbv_maxrate=20000 / vbv_bufsize=25000 / crf_max=0.0 / nal_hrd=none / filler=0 / ip_ratio=1.40 / aq=1:1.00
Color range :Limited
Color primaries :BT.709
Transfer characteristics :BT.709
Matrix coefficients :BT.709
Codec configuration box :avcC

Audio
ID :2
Format :AAC LC
Format/Info :Advanced Audio Codec Low Complexity
Codec ID :mp4a-40-2
Duration :2 h 14 min
Bit rate mode :Variable
Bit rate :148 kb/s
Channel(s) :2 channels
Channel layout :L R
Sampling rate :48.0 kHz
Frame rate :46.875 FPS (1024 SPF)
Compression mode :Lossy
Stream size :142 MiB (5%)
Title :Stereo / Stereo
Default :Yes
Alternate group :1

Discussion

Comments 0

Post Your Comment

Files in this torrent

FILENAMESIZE
Black Panther (2018).mp42.8 GB

Alternative Torrents for 'Black Panther'.

TORRENT NAME ADDED SIZE SEEDS PEERS HEALTH
5/20/2019 787 MB 8 5
3/10/2019 4.1 GB 7 4
4/29/2019 3 GB 7 3
5/13/2019 4.5 GB 7 2
5/28/2019 1.4 GB 6 5
4/22/2019 7.1 GB 4 2
6/16/2019 3.8 GB 4 4
4/20/2019 6.8 GB 2 0
4/25/2019 7.1 GB 2 4
6/7/2019 2.7 GB 2 4
3/2/2019 178 MB 1 2
3/2/2019 178 MB 1 0
4/16/2019 233 MB 1 0
4/16/2019 200 MB 1 0
4/16/2019 75 MB 1 0