Warning! Do NOT Download Without a VPN!
Your IP Address is .   Location is United States
Your Internet Provider and Government can track your download activities! Hide your IP ADDRESS with a VPN!
We strongly recommend using a VPN service to anonymize your torrent downloads. It's FREE!
START YOUR FREE TRIAL NOW!

Star Trek Discovery S02E06 The Sounds Of Thunder 1080p AMZN WEBrip X265 5 1 AAC D0ct0rLew[SEV]

Torrent Details

Star Trek Discovery S02E06 The Sounds of Thunder 1080p AMZN WEBrip x265 5 1 AAC D0ct0rLew[SEV]

NAME
Star Trek Discovery S02E06 The Sounds of Thunder 1080p AMZN WEBrip x265 5 1 AAC D0ct0rLew[SEV].torrent
CATEGORY
Television
INFOHASH
028e144c2ee38561d320cb83b3e265753350ddc8
SIZE
1.8 GB in 1 file
ADDED
Uploaded on 22-02-2019 by our crawler pet called "Spidey".
SWARM
0 seeders & 0 peers
RATING
No votes yet.

Please login to vote for this torrent.


Description

[center]''

''''



''''''''[/center]

Media Information

Unique ID                                : 5866121965872529446333184527075195644 (0x469C6248BD135B649100E4DBDD13AFC)

Complete name                            : Star Trek Discovery S02E06 The Sounds of Thunder 1080p AMZN WEBrip x265 5.1 AAC D0ct0rLew[SEV].mkv

Format                                   : Matroska

Format version                           : Version 4

File size                                : 1.79 GiB

Duration                                 : 56 min 19 s

Overall bit rate                         : 4 555 kb/s

Encoded date                             : UTC 2019-02-22 18:31:49

Writing application                      : mkvmerge v29.0.0 ('Like It Or Not') 64-bit

Writing library                          : libebml v1.3.6 + libmatroska v1.4.9



Video

ID                                       : 3

Format                                   : HEVC

Format/Info                              : High Efficiency Video Coding

Format profile                           : Main [email protected]@Main

Codec ID                                 : V_MPEGH/ISO/HEVC

Duration                                 : 56 min 19 s

Bit rate                                 : 4 104 kb/s

Width                                    : 1 920 pixels

Height                                   : 1 080 pixels

Display aspect ratio                     : 16:9

Frame rate mode                          : Constant

Frame rate                               : 24.000 FPS

Color space                              : YUV

Chroma subsampling                       : 4:2:0

Bit depth                                : 10 bits

Bits/(Pixel*Frame)                       : 0.082

Stream size                              : 1.61 GiB (90%)

Writing library                          : x265 3.0_RC+4-8aebc58efe5c:[Windows][MSVC 1920][64 bit] 10bit

Encoding settings                        : cpuid=1111039 / frame-threads=3 / numa-pools=8 / wpp / no-pmode / no-pme / no-psnr / no-ssim / log-level=2 / input-csp=1 / input-res=1920x1080 / interlace=0 / total-frames=81112 / level-idc=0 / high-tier=1 / uhd-bd=0 / ref=4 / no-allow-non-conformance / no-repeat-headers / annexb / no-aud / no-hrd / info / hash=0 / no-temporal-layers / open-gop / min-keyint=24 / keyint=250 / gop-lookahead=0 / bframes=8 / b-adapt=2 / b-pyramid / bframe-bias=0 / rc-lookahead=90 / lookahead-slices=4 / scenecut=40 / radl=0 / no-splice / no-intra-refresh / ctu=64 / min-cu-size=8 / no-rect / no-amp / max-tu-size=32 / tu-inter-depth=1 / tu-intra-depth=1 / limit-tu=0 / rdoq-level=2 / dynamic-rd=0.00 / no-ssim-rd / signhide / no-tskip / nr-intra=0 / nr-inter=0 / no-constrained-intra / no-strong-intra-smoothing / max-merge=3 / limit-refs=3 / limit-modes / me=3 / subme=7 / merange=92 / temporal-mvp / weightp / no-weightb / no-analyze-src-pics / deblock=0:0 / sao / no-sao-non-deblock / rd=4 / no-early-skip / rskip / no-fast-intra / no-tskip-fast / no-cu-lossless / no-b-intra / no-splitrd-skip / rdpenalty=0 / psy-rd=1.10 / psy-rdoq=1.00 / no-rd-refine / no-lossless / cbqpoffs=0 / crqpoffs=0 / rc=crf / crf=20.5 / qcomp=0.60 / qpstep=4 / stats-write=0 / stats-read=0 / ipratio=1.40 / pbratio=1.30 / aq-mode=3 / aq-strength=1.00 / cutree / zone-count=0 / no-strict-cbr / qg-size=32 / no-rc-grain / qpmax=69 / qpmin=0 / no-const-vbv / sar=0 / overscan=0 / videoformat=5 / range=0 / colorprim=2 / transfer=2 / colormatrix=2 / chromaloc=0 / display-window=0 / max-cll=0,0 / min-luma=0 / max-luma=1023 / log2-max-poc-lsb=8 / vui-timing-info / vui-hrd-info / slices=1 / no-opt-qp-pps / no-opt-ref-list-length-pps / no-multi-pass-opt-rps / scenecut-bias=0.05 / no-opt-cu-delta-qp / no-aq-motion / no-hdr / no-hdr-opt / no-dhdr10-opt / no-idr-recovery-sei / analysis-reuse-level=5 / scale-factor=0 / refine-intra=0 / refine-inter=0 / refine-mv=0 / refine-ctu-distortion=0 / no-limit-sao / ctu-info=0 / no-lowpass-dct / refine-analysis-type=0 / copy-pic=1 / max-ausize-factor=1.0 / no-dynamic-refine / no-single-sei / no-hevc-aq / qp-adaptation-range=1.00

Default                                  : Yes

Forced                                   : No



Audio

ID                                       : 2

Format                                   : AAC LC

Format/Info                              : Advanced Audio Codec Low Complexity

Codec ID                                 : A_AAC-2

Duration                                 : 56 min 19 s

Bit rate                                 : 448 kb/s

Channel(s)                               : 6 channels

Channel layout                           : C L R Ls Rs LFE

Sampling rate                            : 48.0 kHz

Frame rate                               : 46.875 FPS (1024 SPF)

Compression mode                         : Lossy

Delay relative to video                  : 9 ms

Stream size                              : 180 MiB (10%)

Default                                  : Yes

Forced                                   : No



Text

ID                                       : 1

Format                                   : UTF-8

Codec ID                                 : S_TEXT/UTF8

Codec ID/Info                            : UTF-8 Plain Text

Duration                                 : 56 min 5 s

Bit rate                                 : 74 b/s

Count of elements                        : 778

Stream size                              : 30.6 KiB (0%)

Language                                 : English

Default                                  : Yes

Forced                                   : No



[center]We have no issue with individuals posting or re-uploading our torrents on a platform we aren't on. However, if this is something you'd like to do, please do so in a 'as-is' format. We ask that you do not create a new torrent, include all descriptions you see above including the SEV logo, tags, notes and screenshots. If you'd like to become a permanent poster on a website we don't post to, feel free to get in contact with a Sublime Encoded Video member.



We are recruiting/training new members for SEV & seedbox providers as well as people to help out with subtitles.

As you already know, we deliver quality, so you know the standard.

If you're interested, feel free to contact any of the team members.[/center]

Discussion

Comments 0

Post Your Comment

Files in this torrent

FILENAMESIZE
Star Trek Discovery S02E06 The Sounds of Thunder 1080p AMZN WEBrip x265 5.1 AAC D0ct0rLew[SEV].mkv1.8 GB

Alternative Torrents for 'Star Trek Discovery SE Sounds of Thunder AAC DctrLew'.

TORRENT NAME ADDED SIZE SEEDS PEERS HEALTH
Yesterday 953 MB 2209 1139
Yesterday 758 MB 2181 1550
5/20/2019 1.9 GB 1844 76
6/6/2019 1.1 GB 1558 355
6/11/2019 942 MB 1530 384
5/25/2019 614 MB 1496 37
Yesterday 1.4 GB 1427 957
4/29/2019 702 MB 1267 17
4/15/2019 398 MB 1126 26
5/13/2019 626 MB 1089 35
4/15/2019 1.6 GB 1082 64
Today 4.4 GB 1077 301
Yesterday 772 MB 1064 238
4/22/2019 393 MB 1060 19
5/7/2019 647 MB 1012 12