Kavkazskaya Plennitsa 2014 WEB-DLRip 745MB

Torrent Details


Kavkazskaya plennitsa 2014 WEB-DLRip 745MB

NAME
Kavkazskaya plennitsa 2014 WEB-DLRip 745MB.torrent
CATEGORY
Movies
INFOHASH
bcafcbf75a1cfbcd9741661dac68b2649a8be8bd
SIZE
745 MB in 1 file
ADDED
Uploaded on 08-03-2019 by our crawler pet called "Spidey".
SWARM
0 seeders & 0 peers
RATING
No votes yet.

Please login to vote for this torrent.


Description

Информация о фильме

Оригинальное название: Кавказская пленница!

Год выхода: 2014

Жанр: Комедия, мелодрама, приключения, семейный, ремейк

Режиссёр: Максим Воронков

В ролях: Дмитрий Шаракоис, Анастасия Задорожная, Геннадий Хазанов, Арарат Кещян, Семён Стругачев, Сергей Степанченко, Николай Добрынин, Михаил Ефремов, Юлий Гусман, Лариса Удовиченко



О фильме:

Журналист Шурик приезжает на Кавказ, чтобы снять репортаж о местных красотах и традициях, и попадает в Горск, вотчину местного мэра города Георгия Гаджиевича Саахова. Тот, поддерживая моду, заданную губернатором, задумал жениться на молоденькой красавице, спортсменке и даже экстремалке Нине, которая так понравилась Шурику. Используя незадачливого журналиста, Саахов и его подручные похищают Нину. Но, поняв, что его разыграли, Шурик бросается спасать любимую девушку…







Производство: Россия, Viking

Продолжительность: 01:35:34

Перевод: Не требуется (Русский)



Файл

Кодек: XviD

Качество: WEB-DLRip [Исходник: WEB-DL (720p) | iTunes]

Видео: XviD, 656x272 (2.40:1), 952 Кбит/с, 24 кадр/с

Звук: Русский, MP3, 48000 Гц, 128 Кбит/с, 2 канала (Стерео)







MediaInfo

General

Complete name : Kavkazskaya.plennitsa.2014.WEB-DLRip.745MB.avi

Format : AVI

Format/Info : Audio Video Interleave

File size : 745 MiB

Duration : 1h 35mn

Overall bit rate : 1 089 Kbps

Writing application : VirtualDubMod 1.5.10.3 | www.virtualdub-fr.org || (build 2550/release)

Writing library : VirtualDubMod build 2550/release

Copyright : rip by ivandubskoj



Video

ID : 0

Format : MPEG-4 Visual

Format profile : Advanced [email protected]

Format settings, BVOP : 2

Format settings, QPel : No

Format settings, GMC : No warppoints

Format settings, Matrix : Custom

Codec ID : XVID

Codec ID/Hint : XviD

Duration : 1h 35mn

Bit rate : 952 Kbps

Width : 656 pixels

Height : 272 pixels

Display aspect ratio : 2.40:1

Frame rate : 24.000 fps

Color space : YUV

Chroma subsampling : 4:2:0

Bit depth : 8 bits

Scan type : Progressive

Compression mode : Lossy

Bits/(Pixel*Frame) : 0.222

Stream size : 651 MiB (87%)

Writing library : XviD 73



Audio

ID : 1

Format : MPEG Audio

Format version : Version 1

Format profile : Layer 3

Codec ID : 55

Codec ID/Hint : MP3

Duration : 1h 35mn

Bit rate mode : Constant

Bit rate : 128 Kbps

Channel(s) : 2 channels

Sampling rate : 48.0 KHz

Compression mode : Lossy

Stream size : 87.5 MiB (12%)

Alignment : Aligned on interleaves

Interleave, duration : 42 ms (1.00 video frame)

Interleave, preload duration : 504 ms

Writing library : LAME3.99r

Encoding settings : -m s -V 4 -q 0 -lowpass 17 -b 128

Скриншоты





Автор рипа - ivandubskoj

Discussion

Comments 0

Post Your Comment

Files in this torrent

FILENAMESIZE
Kavkazskaya.plennitsa.2014.WEB-DLRip.745MB.avi744.6 MB

Alternative Torrents for 'Kavkazskaya plennitsa DLRip MB'.

There are no alternative torrents found.