Warning! Do NOT Download Without a VPN!
Your IP Address is .   Location is United States
Your Internet Provider and Government can track your download activities! Hide your IP ADDRESS with a VPN!
We strongly recommend using a VPN service to anonymize your torrent downloads. It's FREE!
START YOUR FREE TRIAL NOW!

Green Book (2018) BDRip 1080p [HEVC] 10bit

Torrent Details

Green Book (2018) BDRip 1080p [HEVC] 10bit

NAME
Green Book (2018) BDRip 1080p [HEVC] 10bit.torrent
CATEGORY
Movies
INFOHASH
cb78a82c6e37726d585c42c3a7016760275bc6b6
SIZE
6.4 GB in 1 file
ADDED
Uploaded on 10-03-2019 by our crawler pet called "Spidey".
SWARM
151 seeders & 4 peers
RATING
No votes yet.

Please login to vote for this torrent.


Description

Информация о фильме

Название: Зелёная книга

Оригинальное название: Green Book

Год выхода: 2018

Жанр: Драма, комедия, биография

Режиссер: Питер Фаррелли

В ролях: Вигго Мортенсен, Махершала Али, Линда Карделлини, Себастьян Манискалко, Димитар Маринов, Майк Хаттон, П.Дж. Бирн, Джозеф Кортезе, Мэгги Никсон, Фон Льюис



О фильме:

Утонченный светский лев, богатый и талантливый музыкант нанимает в качестве водителя и телохранителя человека, который менее всего подходит для этой работы. Тони «Болтун» - вышибала, не умеющий держать рот на замке и пользоваться столовыми приборами, зато он хорошо работает кулаками. Это турне навсегда изменит жизнь обоих.









Страна: США

Студия: Participant Media, DreamWorks, Amblin Partners

Продолжительность: 02:10:05

Перевод: Дублированный (iTunes)



Файл

Качество: BDRip-HEVC 1080p

Видео: HEVC/x.265, 1920x956, ~6214 Kbps

Звук 1: AC3, 6 ch, 448 Kbps (Оригинал)

Звук 2: AC3, 6 ch, 384 Kbps Дублированный (iTunes)

Субтитры: Русские(Forced), Английские







Mediainfo

General

Unique ID : 18136741287311332252360942566338426368 (0xDA502626509F9BB153C754177DB7600)

Complete name : H:HEVC-CLUBGreen Book (2018) BDRip 1080p [HEVC] 10bit.mkv

Format : Matroska

Format version : Version 4

File size : 6.40 GiB

Duration : 2 h 10 min

Overall bit rate : 7 046 kb/s

Movie name : Зеленая книга

Encoded date : UTC 2019-03-07 15:04:50

Writing application : mkvmerge v25.0.0 ('Prog Noir') 64-bit

Writing library : libebml v1.3.6 + libmatroska v1.4.9 / Lavf57.71.100

Attachments : poster.jpg

ACTORS : Вигго Мортенсен, Махершала Али,

COUNTRY : США

DATE : 2018

DIRECTOR : Питер Фаррелли

ENCODING_INFO : MATROSKA,WEBM > MKV / H264 > X265 CRF 19.5 Medium / AC3 > AC3 CBR 480kbps / AC3 > AC3 CBR 480kbps

GENRE : комедия, драма, биография

HD_VIDEO : 1

Language : und

MEDIA_TYPE : 9

ORIGINAL_TITLE : Green Book



Video

ID : 1

Format : HEVC

Format/Info : High Efficiency Video Coding

Format profile : Main [email protected]@High

Codec ID : V_MPEGH/ISO/HEVC

Duration : 2 h 10 min

Bit rate : 6 214 kb/s

Width : 1 920 pixels

Height : 956 pixels

Display aspect ratio : 2.008

Frame rate mode : Constant

Frame rate : 23.976 (24000/1001) FPS

Color space : YUV

Chroma subsampling : 4:2:0

Bit depth : 10 bits

Bits/(Pixel*Frame) : 0.141

Stream size : 5.65 GiB (88%)

Writing library : x265 2.9+9-f74003e88622:[Windows][GCC 8.2.0][64 bit] 10bit

Encoding settings : cpuid=1111039 / frame-threads=13 / numa-pools=12 / wpp / no-pmode / no-pme / no-psnr / no-ssim / log-level=3 / input-csp=1 / input-res=1920x956 / interlace=0 / total-frames=0 / level-idc=41 / high-tier=1 / uhd-bd=0 / ref=3 / allow-non-conformance / no-repeat-headers / annexb / no-aud / no-hrd / info / hash=0 / no-temporal-layers / open-gop / min-keyint=24 / keyint=240 / gop-lookahead=0 / bframes=4 / b-adapt=2 / b-pyramid / bframe-bias=0 / rc-lookahead=20 / lookahead-slices=4 / scenecut=40 / radl=0 / no-intra-refresh / ctu=64 / min-cu-size=8 / rect / no-amp / max-tu-size=32 / tu-inter-depth=3 / tu-intra-depth=3 / limit-tu=0 / rdoq-level=2 / dynamic-rd=0.00 / no-ssim-rd / signhide / no-tskip / nr-intra=0 / nr-inter=0 / no-constrained-intra / no-strong-intra-smoothing / max-merge=3 / limit-refs=3 / no-limit-modes / me=3 / subme=7 / merange=57 / temporal-mvp / weightp / no-weightb / no-analyze-src-pics / deblock=-3:-3 / no-sao / no-sao-non-deblock / rd=6 / no-early-skip / rskip / no-fast-intra / no-tskip-fast / no-cu-lossless / no-b-intra / no-splitrd-skip / rdpenalty=0 / psy-rd=2.00 / psy-rdoq=0.00 / no-rd-refine / no-lossless / cbqpoffs=0 / crqpoffs=0 / rc=crf / crf=19.5 / qcomp=0.70 / qpstep=4 / stats-write=0 / stats-read=0 / vbv-maxrate=50000 / vbv-bufsize=50000 / vbv-init=0.9 / crf-max=0.0 / crf-min=0.0 / ipratio=1.40 / pbratio=1.30 / aq-mode=1 / aq-strength=1.00 / cutree / zone-count=0 / no-strict-cbr / qg-size=32 / no-rc-grain / qpmax=69 / qpmin=0 / no-const-vbv / sar=1 / overscan=0 / videoformat=5 / range=0 / colorprim=1 / transfer=1 / colormatrix=1 / chromaloc=0 / display-window=0 / max-cll=0,0 / min-luma=0 / max-luma=1023 / log2-max-poc-lsb=8 / vui-timing-info / vui-hrd-info / slices=1 / no-opt-qp-pps / no-opt-ref-list-length-pps / no-multi-pass-opt-rps / scenecut-bias=0.05 / no-opt-cu-delta-qp / aq-motion / no-hdr / no-hdr-opt / no-dhdr10-opt / no-idr-recovery-sei / analysis-reuse-level=5 / scale-factor=0 / refine-intra=0 / refine-inter=0 / refine-mv=0 / no-limit-sao / ctu-info=0 / no-lowpass-dct / refine-mv-type=0 / copy-pic=1 / max-ausize-factor=1.0 / no-dynamic-refine / no-single-sei

Language : English

Default : Yes

Forced : No

Color range : Limited

Color primaries : BT.709

Transfer characteristics : BT.709

Matrix coefficients : BT.709



Audio #1

ID : 2

Format : AC-3

Format/Info : Audio Coding 3

Commercial name : Dolby Digital

Codec ID : A_AC3

Duration : 2 h 10 min

Bit rate mode : Constant

Bit rate : 448 kb/s

Channel(s) : 6 channels

Channel layout : L R C LFE Ls Rs

Sampling rate : 48.0 kHz

Frame rate : 31.250 FPS (1536 SPF)

Bit depth : 16 bits

Compression mode : Lossy

Stream size : 417 MiB (6%)

Language : English

Service kind : Complete Main

Default : No

Forced : No



Audio #2

ID : 6

Format : AC-3

Format/Info : Audio Coding 3

Commercial name : Dolby Digital

Codec ID : A_AC3

Duration : 2 h 10 min

Bit rate mode : Constant

Bit rate : 384 kb/s

Channel(s) : 6 channels

Channel layout : L R C LFE Ls Rs

Sampling rate : 48.0 kHz

Frame rate : 31.250 FPS (1536 SPF)

Bit depth : 16 bits

Compression mode : Lossy

Stream size : 357 MiB (5%)

Title : iTunes

Language : Russian

Service kind : Complete Main

Default : Yes

Forced : Yes



Text #1

ID : 3

Format : UTF-8

Codec ID : S_TEXT/UTF8

Codec ID/Info : UTF-8 Plain Text

Duration : 1 h 11 min

Bit rate : 2 b/s

Count of elements : 26

Stream size : 1.40 KiB (0%)

Title : Forced

Language : Russian

Default : Yes

Forced : Yes



Text #2

ID : 4

Format : UTF-8

Codec ID : S_TEXT/UTF8

Codec ID/Info : UTF-8 Plain Text

Duration : 2 h 0 min

Bit rate : 102 b/s

Count of elements : 1406

Stream size : 90.4 KiB (0%)

Title : Full

Language : Russian

Default : No

Forced : No



Text #3

ID : 5

Format : UTF-8

Codec ID : S_TEXT/UTF8

Codec ID/Info : UTF-8 Plain Text

Duration : 2 h 9 min

Bit rate : 69 b/s

Count of elements : 2389

Stream size : 66.4 KiB (0%)

Language : English

Default : No

Forced : No



Menu

00:00:00.000 : :00:00:00.000

00:05:43.009 : :00:05:43.009

00:11:50.043 : :00:11:50.043

00:18:17.805 : :00:18:17.805

00:23:46.675 : :00:23:46.675

00:28:37.382 : :00:28:37.382

00:34:38.784 : :00:34:38.785

00:41:13.304 : :00:41:13.304

00:46:44.593 : :00:46:44.593

00:54:19.173 : :00:54:19.173

01:02:42.342 : :01:02:42.342

01:10:42.654 : :01:10:42.655

01:16:16.155 : :01:16:16.155

01:24:30.274 : :01:24:30.274

01:30:37.724 : :01:30:37.724

01:36:53.266 : :01:36:53.266

01:44:56.081 : :01:44:56.081

01:51:12.124 : :01:51:12.124

01:54:38.872 : :01:54:38.872

02:02:25.505 : :02:02:25.505



Скриншоты



Релиз от: HANNIBAL

Discussion

Comments 0

Post Your Comment

Files in this torrent

FILENAMESIZE
Green Book (2018) BDRip 1080p [HEVC] 10bit.mkv6.4 GB

Alternative Torrents for 'Green Book BDRip bit'.

TORRENT NAME ADDED SIZE SEEDS PEERS HEALTH
6/19/2019 1.5 GB 3905 190
6/18/2019 693 MB 1620 108
4/4/2019 695 MB 1037 10
6/12/2019 11.6 GB 942 64
6/14/2019 1.4 GB 913 47
6/14/2019 693 MB 813 26
4/4/2019 693 MB 804 9
4/5/2019 1.4 GB 723 6
6/11/2019 695 MB 688 39
6/4/2019 13.8 GB 669 32
3/23/2019 1.4 GB 662 15
6/7/2019 692 MB 658 39
6/12/2019 693 MB 641 41
3/28/2019 695 MB 637 21
6/13/2019 1.1 GB 633 31