High Wire Act (Beirut) 2018 BDRip(AVC) OlLanDGroup

Torrent Details


High Wire Act (Beirut) 2018 BDRip(AVC)<span style=color:#fc9c6d> OlLanDGroup</span>

NAME
High Wire Act (Beirut) 2018 BDRip(AVC) OlLanDGroup.torrent
CATEGORY
Movies
INFOHASH
023a19a37049db0e7c7ec167c8591c0d6bdd4c4b
SIZE
1.5 GB in 1 file
ADDED
Uploaded on 10-03-2019 by our crawler pet called "Spidey".
SWARM
0 seeders & 0 peers
RATING
No votes yet.

Please login to vote for this torrent.


Description

Точка невозврата / High Wire Act

«Beirut: 1982 - The Paris of the Middle East Was Burning»





Год выпуска: 2018

Страна: США

Производство: Electric Entertainment

Жанр: Триллер, драма



Режиссёр: Брэд Андерсон

В ролях: Розамунд Пайк, Джон Хэмм, Марк Пеллегрино, Дин Норрис, Шей Уигэм, Джонатан Койн, Дуглас Ходж, Лейла Бехти, Кейт Флитвуд, Алон Абутбул



Перевод: Дублированный | Лицензия

Субтитры: Английские

Реклама: Отсутствует



Описание: Разгар Ливанской войны. Интриги, предательство, грязные компроматы, нравственное падение, жертвенность и любовь, боль и надежда… На руках героя умирает жена, подстреленная террористами. Через десять лет он, преодолев ненависть и отчаяние, возвращается в Бейрут, чтобы вызволить из плена давнего друга, захваченного в плен боевиками.







Качество: BDRip-AVC

Продолжительность: 01:49:45



Формат: MKV

Видео кодек: MPEG-4 AVC

Аудио кодек: AC3

Видео: 720x304 (2.35:1), 23,976 fps, x264 ~1 455 kbps avg, 0.277 bit/pixel

Аудио: 48 kHz, AC3 Dolby Digital, 3/2 (L,C,R,l,r) + LFE ch, ~448.00 kbps avg | RUS (Лицензия)



Дата премьеры (мир): 22 января 2018

Дата премьеры (РФ): 19 апреля 2018, «Парадиз»





Релиз от: Rip by:



MediaInfo

Общее

Уникальный идентификатор : 299329750832213663645750464483845828756 (0xE130D023379FA4CB9BFAA10B94817094)

Полное имя : F:OlLanDGroupHigh.Wire.Act.(Beirut).2018.BDRip(AVC).OlLanDGroup.mkv

Формат : Matroska

Версия формата : Version 4 / Version 2

Размер файла : 1,46 Гбайт

Продолжительность : 1 ч. 49 м.

Общий поток : 1902 Кбит/сек

Название фильма : High Wire Act.(Beirut).2018 #TorpedoUK#

Дата кодирования : UTC 2019-02-11 14:24:28

Программа кодирования : mkvmerge v29.0.0 ('Like It Or Not') 64-bit

Библиотека кодирования : libebml v1.3.6 + libmatroska v1.4.9



Видео

Идентификатор : 1

Формат : AVC

Формат/Информация : Advanced Video Codec

Профиль формата : [email protected]

Параметр CABAC формата : Да

Параметр ReFrames формата : 10 кадров

Идентификатор кодека : V_MPEG4/ISO/AVC

Продолжительность : 1 ч. 49 м.

Битрейт : 1455 Кбит/сек

Ширина : 720 пикселей

Высота : 304 пикселя

Соотношение сторон : 2,35:1

Режим частоты кадров : Постоянный

Частота кадров : 23,976 (24000/1001) кадра/сек

Цветовое пространство : YUV

Субдискретизация насыщенности : 4:2:0

Битовая глубина : 8 бит

Тип развёртки : Прогрессивная

Бит/(Пиксели*Кадры) : 0.277

Размер потока : 1,11 Гбайт (76%)

Библиотека кодирования : x264 core 146 r2538 121396c

Настройки программы : cabac=1 / ref=10 / deblock=1:-3:-3 / analyse=0x3:0x113 / me=umh / subme=11 / psy=1 / psy_rd=0.99:0.04 / mixed_ref=1 / me_range=48 / chroma_me=1 / trellis=2 / 8x8dct=1 / cqm=0 / deadzone=21,11 / fast_pskip=1 / chroma_qp_offset=-3 / threads=6 / lookahead_threads=1 / sliced_threads=0 / nr=0 / decimate=1 / interlaced=0 / bluray_compat=0 / constrained_intra=0 / bframes=10 / b_pyramid=2 / b_adapt=2 / b_bias=0 / direct=3 / weightb=1 / open_gop=0 / weightp=2 / keyint=240 / keyint_min=23 / scenecut=40 / intra_refresh=0 / rc_lookahead=40 / rc=2pass / mbtree=1 / bitrate=1455 / ratetol=1.0 / qcomp=0.60 / qpmin=0 / qpmax=69 / qpstep=4 / cplxblur=20.0 / qblur=0.5 / vbv_maxrate=50000 / vbv_bufsize=62500 / nal_hrd=none / filler=0 / ip_ratio=1.40 / aq=1:1.00

Default : Да

Forced : Нет



Аудио

Идентификатор : 2

Формат : AC-3

Формат/Информация : Audio Coding 3

Расширение режима : CM (complete main)

Параметр Endianness формата : Big

Идентификатор кодека : A_AC3

Продолжительность : 1 ч. 49 м.

Вид битрейта : Постоянный

Битрейт : 448 Кбит/сек

Каналы : 6 каналов

Расположение каналов : Front: L C R, Side: L R, LFE

Частота : 48,0 КГц

Частота кадров : 31,250 кадров/сек (1536 spf)

Битовая глубина : 16 бит

Метод сжатия : С потерями

Размер потока : 352 Мбайт (24%)

Заголовок : DUB [iTunes]

Язык : Russian

Default : Да

Forced : Нет



Текст #1

Идентификатор : 3

Формат : UTF-8

Идентификатор кодека : S_TEXT/UTF8

Идентификатор кодека/Информация : UTF-8 Plain Text

Продолжительность : 1 ч. 44 м.

Битрейт : 71 бит/сек

Count of elements : 1582

Размер потока : 54,8 Кбайт (0%)

Заголовок : Full

Язык : English

Default : Нет

Forced : Нет



Текст #2

Идентификатор : 4

Формат : UTF-8

Идентификатор кодека : S_TEXT/UTF8

Идентификатор кодека/Информация : UTF-8 Plain Text

Продолжительность : 1 ч. 44 м.

Битрейт : 80 бит/сек

Count of elements : 1685

Размер потока : 61,2 Кбайт (0%)

Заголовок : SDH

Язык : English

Default : Нет

Forced : Нет



Меню

00:00:00.000 : :1

00:09:49.798 : :2

00:21:31.666 : :3

00:34:19.141 : :4

00:44:03.934 : :5

00:58:29.174 : :6

01:11:17.192 : :7

01:21:53.745 : :8

01:32:33.968 : :9

Скриншоты



Discussion

Comments 0

Post Your Comment

Files in this torrent

FILENAMESIZE
High.Wire.Act.(Beirut).2018.BDRip(AVC).OlLanDGroup.mkv1.5 GB

Alternative Torrents for 'High Wire Act Beirut AVC'.

TORRENT NAMEADDEDSIZESEEDSPEERSHEALTH
3/10/20191.5 GB00