High Wire Act (Beirut) 2018 BDRip 1080p SeleZen

Torrent Details


High Wire Act (Beirut) 2018 BDRip 1080p<span style=color:#fc9c6d> seleZen</span>

NAME
High Wire Act (Beirut) 2018 BDRip 1080p seleZen.torrent
CATEGORY
Movies
INFOHASH
50d4a53ab9ba9da947e3cbfe6ec842524b0a98f8
SIZE
12.9 GB in 1 file
ADDED
Uploaded on 10-03-2019 by our crawler pet called "Spidey".
SWARM
0 seeders & 0 peers
RATING
No votes yet.

Please login to vote for this torrent.


Description

Информация о фильме

Название: Точка не возврата

Оригинальное название: High Wire Act / Beirut

Год выхода: 2018

Жанр: Триллер, драма

Режиссер: Брэд Андерсон

В ролях: Розамунд Пайк, Джон Хэмм, Марк Пеллегрино, Дин Норрис, Шей Уигэм, Джонатан Койн, Дуглас Ходж, Лейла Бехти, Кейт Флитвуд, Алон Абутбул







О фильме: Разгар Ливанской войны. Интриги, предательство, грязные компроматы, нравственное падение, жертвенность и любовь, боль и надежда… На руках героя умирает жена, подстреленная террористами. Через десять лет он, преодолев ненависть и отчаяние, возвращается в Бейрут, чтобы вызволить из плена давнего друга, захваченного в плен боевиками.



Страна: США

Студия: Electric Entertainment

Продолжительность: 01:49:45

Перевод: Дублированный | Лицензия R5



Качество: BDRip 1080p

Видео: MPEG-4 AVC, 1920x806, 14.9 Mbit/s, 23.976 fps

Аудио #01: 48 kHz, AC3, 5.1, 448 Kbps | Дублированный | RUS |

Аудио #02: 48 kHz, DTS, 5.1, 1510 Kbps | Оригинал | ENG |

Субтитры: Английские







MIGeneral

Unique ID : 143819131616802507070106643896914050838 (0x6C328EA5AF6F350DC69468DC373E7F16)

Complete name : D:Video111High Wire Act.(Beirut).2018.BDRip.1080p.seleZen.mkv

Format : Matroska

Format version : Version 4

File size : 12.9 GiB

Duration : 1 h 49 min

Overall bit rate : 16.8 Mb/s

Movie name : High Wire Act from селезень

Encoded date : UTC 2019-02-11 07:46:06

Writing application : mkvmerge v29.0.0 ('Like It Or Not') 64-bit

Writing library : libebml v1.3.6 + libmatroska v1.4.9



Video

ID : 1

Format : AVC

Format/Info : Advanced Video Codec

Format profile : [email protected]

Format settings : CABAC / 5 Ref Frames

Format settings, CABAC : Yes

Format settings, ReFrames : 5 frames

Codec ID : V_MPEG4/ISO/AVC

Duration : 1 h 49 min

Bit rate : 14.9 Mb/s

Width : 1 920 pixels

Height : 806 pixels

Display aspect ratio : 2.40:1

Frame rate mode : Constant

Frame rate : 23.976 (24000/1001) FPS

Color space : YUV

Chroma subsampling : 4:2:0

Bit depth : 8 bits

Scan type : Progressive

Bits/(Pixel*Frame) : 0.400

Stream size : 11.4 GiB (88%)

Title : @ HDChina

Writing library : x264 core 151 r2836+45 cabfa1f 7mod [[email protected] X86_64]

Encoding settings : cabac=1 / ref=5 / deblock=1:-3:-3 / analyse=0x3:0x133 / me=umh / subme=11 / psy=1 / fade_compensate=0.00 / psy_rd=0.90:0.00 / mixed_ref=1 / me_range=48 / chroma_me=1 / trellis=2 / 8x8dct=1 / cqm=0 / deadzone=21,11 / fast_pskip=0 / chroma_qp_offset=-2 / threads=16 / lookahead_threads=4 / sliced_threads=0 / nr=0 / decimate=0 / interlaced=0 / bluray_compat=0 / constrained_intra=0 / fgo=0 / bframes=10 / b_pyramid=2 / b_adapt=2 / b_bias=0 / direct=3 / weightb=1 / open_gop=0 / weightp=2 / keyint=240 / keyint_min=24 / scenecut=40 / intra_refresh=0 / rc=crf / mbtree=0 / crf=16.5000 / qcomp=0.60 / qpmin=0:0:0 / qpmax=69:69:69 / qpstep=4 / ip_ratio=1.30 / pb_ratio=1.20 / aq=3:0.90 / aq-sensitivity=10.00 / aq-factor=1.00:1.00:1.00 / aq2=0 / aq3=0

Language : English

Default : Yes

Forced : No

Color range : Limited

Color primaries : BT.709

Transfer characteristics : BT.709

Matrix coefficients : BT.709



Audio #1

ID : 2

Format : AC-3

Format/Info : Audio Coding 3

Commercial name : Dolby Digital

Codec ID : A_AC3

Duration : 1 h 49 min

Bit rate mode : Constant

Bit rate : 448 kb/s

Channel(s) : 6 channels

Channel layout : L R C LFE Ls Rs

Sampling rate : 48.0 kHz

Frame rate : 31.250 FPS (1536 SPF)

Bit depth : 16 bits

Compression mode : Lossy

Stream size : 352 MiB (3%)

Title : Dub [License] - R5 Парадиз

Language : Russian

Service kind : Complete Main

Default : Yes

Forced : Yes



Audio #2

ID : 3

Format : DTS

Format/Info : Digital Theater Systems

Codec ID : A_DTS

Duration : 1 h 49 min

Bit rate mode : Constant

Bit rate : 1 509 kb/s

Channel(s) : 6 channels

Channel layout : C L R Ls Rs LFE

Sampling rate : 48.0 kHz

Frame rate : 93.750 FPS (512 SPF)

Bit depth : 24 bits

Compression mode : Lossy

Stream size : 1.16 GiB (9%)

Title : Original

Language : English

Default : No

Forced : No



Text

ID : 4

Format : UTF-8

Codec ID : S_TEXT/UTF8

Codec ID/Info : UTF-8 Plain Text

Duration : 1 h 44 min

Bit rate : 80 b/s

Count of elements : 1685

Stream size : 61.2 KiB (0%)

Title : SDH

Language : English

Default : No

Forced : No



Menu

00:00:00.000 : en:1

00:09:49.798 : en:2

00:21:31.666 : en:3

00:34:19.141 : en:4

00:44:03.934 : en:5

00:58:29.174 : en:6

01:11:17.192 : en:7

01:21:53.745 : en:8

01:32:33.968 : en:9



Релиз от:



Discussion

Comments 0

Post Your Comment

Files in this torrent

FILENAMESIZE
High Wire Act.(Beirut).2018.BDRip.1080p.seleZen.mkv12.9 GB

Alternative Torrents for 'High Wire Act Beirut'.

TORRENT NAMEADDEDSIZESEEDSPEERSHEALTH
3/11/201929.9 GB00
3/11/20191.5 GB00
3/10/20195 GB00
3/10/201912.9 GB00
3/10/20191.5 GB00