Elementary S02 WEB-DL 1080p

Torrent Details

Elementary S02 WEB-DL 1080p

NAME
Elementary S02 WEB-DL 1080p.torrent
CATEGORY
Television
INFOHASH
83fe805c746a7e81502b2299faece29c87e0aa51
SIZE
40.2 GB in 24 files
ADDED
Uploaded on 13-03-2019 by our crawler pet called "Spidey".
SWARM
0 seeders & 0 peers
RATING
No votes yet.

Please login to vote for this torrent.


Description

Информация о фильме

Название: Элементарно

Оригинальное название: Elementary

Год выпуска: 2013

Жанр: драма, криминал, детектив

Режиссер: Джон Полсон, Гай Ферленд, Кристин Мур

В ролях: Джонни Ли Миллер (Sherlock Holmes), Люси Лью (Dr. Joan Watson), Айдан Куинн (Captain Thomas Gregson), Джон Майкл Хилл (Detective Marcus Bell), Джордан Гелбер (Dr. Eugene Hawes), Офелия Ловибонд (Kitty Winter), Джон Ноубл (Mr. Morland Holmes), Нелсан Эллис (Shinwell Johnson), Ато Эссонда (Alfredo Llamosa), Роберт Капрон (Mason), Рис Иванс (Mycroft Holmes), Натали Дормер (Jamie Moriarty)



О фильме: Создатели сериала «Элементарно» взяли за основу сюжета книги сэра Артура Конана Дойла, но решили перенести действие в современный Нью-Йорк. Затем они сделали Шерлока Холмса наркоманом, который проходит курс реабилитации, поменяли пол Джону Ватсону и превратили его (ее) в куратора главного героя. Телеканал CBS дал волю сценаристу Роберту Доэрти, а Роберт Доэрти дал волю своему воображению. Результат не замедлил себя ждать: даже в эпоху «шерлокизации» «Элементарно» быстро нашел свою нишу и аудиторию. История бывшего наркомана и его напарницы сезон за сезоном интригует, завораживает и дает понять, что этой парочке под силу даже самые сложные дела.

Бывшего хирурга Джоан Ватсон (Люси Лью), которая теперь работает куратором трезвости в реабилитационном центре, прикрепляют к идущему на поправку Шерлоку Холмсу (Джонни Ли Миллер). Она прибывает на встречу с ним, но обнаруживает, что ее подопечный сбежал. Когда герои наконец встречаются, Холмс рассказывает Джоан, что до своего знакомства с наркотиками он помогал убойному отделу Скотленд-Ярда в качестве консультанта. И сейчас он занят расследованием нападения и возможного похищения одной женщины. Джоан Ватсон должна решить, стоит ли доверять человеку, у которого были проблемы с наркотиками и законом. Более того, саму ее гнетет прошлое, в котором она не смогла спасти пациента. Тот случай сильно подорвал уверенность Джоан в себе, спровоцировав нежелание брать на себя какую бы то ни было ответственность. Но чем больше времени герои тратят на самокопание и выяснение отношений, тем меньше остается улик по делу, которое необходимо раскрыть…







Страна: США

Студия: CBS Television Studios, Hill of Beans Productions

Продолжительность: ~00:44:00 серия

Перевод: Профессиональный (многоголосый, закадровый) "Пифагор" по заказу "Amedia"



Файл

Качество: WEB-DL 1080p

Формат: Matroska

Видео: 1920x1080 at 23.976 fps, MPEG4-AVC, ~7000 kbps avg

Аудио#1: Russian: 48 kHz, AC3, 3/2 (L,C,R,l,r) + LFE ch, ~384 kbps avg |Многоголосый закадровый, Пифагор|

Аудио#2: English: 48 kHz, E-AC3, 3/2 (L,C,R,l,r) + LFE ch, ~640 kbps avg

Субтитры: Русские, английские (SDH)



***Примечание: Без рекламы.



Media InfoОбщее

Полное имя : Elementary.S02E01.Step.Nine.WEB-DL.1080p.mkv

Формат : Matroska

Версия формата : Version 4

Размер файла : 2,46 Гбайт

Продолжительность : 43 м. 14 с.

Режим общего битрейта : Переменный

Общий поток : 8131 Кбит/сек

Дата кодирования : UTC 2019-01-04 14:29:33

Программа кодирования : mkvmerge v29.0.0 ('Like It Or Not') 64-bit

Библиотека кодирования : libebml v1.3.6 + libmatroska v1.4.9



Видео

Идентификатор : 1

Формат : AVC

Формат/Информация : Advanced Video Codec

Профиль формата : [email protected]

Настройки формата : CABAC / 3 Ref Frames

Параметр CABAC формата : Да

Параметр RefFrames формата : 3 кадра

Идентификатор кодека : V_MPEG4/ISO/AVC

Продолжительность : 43 м. 14 с.

Вид битрейта : Переменный

Битрейт : 7150 Кбит/сек

Максимальный битрейт : 10,7 Мбит/сек

Ширина : 1920 пикселей

Высота : 1080 пикселей

Соотношение сторон : 16:9

Режим частоты кадров : Постоянный

Частота кадров : 23,976 (24000/1001) кадра/сек

Цветовое пространство : YUV

Субдискретизация насыщенности : 4:2:0

Битовая глубина : 8 бит

Тип развёртки : Прогрессивная

Бит/(Пиксели*Кадры) : 0.144

Размер потока : 2,15 Гбайт (87%)

Заголовок : English

Библиотека кодирования : x264 core 118

Настройки программы : cabac=1 / ref=3 / deblock=1:0:0 / analyse=0x1:0x111 / me=umh / subme=10 / psy=1 / psy_rd=1.00:0.00 / mixed_ref=1 / me_range=24 / chroma_me=1 / trellis=2 / 8x8dct=0 / cqm=0 / deadzone=21,11 / fast_pskip=1 / chroma_qp_offset=-2 / threads=8 / sliced_threads=0 / nr=0 / decimate=1 / interlaced=0 / bluray_compat=0 / constrained_intra=0 / bframes=2 / b_pyramid=0 / b_adapt=2 / b_bias=0 / direct=3 / weightb=1 / open_gop=0 / weightp=2 / keyint=48 / keyint_min=25 / scenecut=0 / intra_refresh=0 / rc_lookahead=0 / rc=2pass / mbtree=1 / bitrate=7150 / ratetol=1.0 / qcomp=0.50 / qpmin=6 / qpmax=51 / qpstep=4 / cplxblur=20.0 / qblur=0.5 / vbv_maxrate=10725 / vbv_bufsize=14300 / nal_hrd=vbr / ip_ratio=1.40 / aq=1:1.00

Язык : English

Default : Да

Forced : Нет



Аудио #1

Идентификатор : 2

Формат : AC-3

Формат/Информация : Audio Coding 3

Коммерческое название : Dolby Digital

Идентификатор кодека : A_AC3

Продолжительность : 43 м. 14 с.

Вид битрейта : Постоянный

Битрейт : 384 Кбит/сек

Каналы : 6 каналов

Channel layout : L R C LFE Ls Rs

Частота : 48,0 КГц

Частота кадров : 31,250 кадров/сек (1536 SPF)

Битовая глубина : 16 бит

Метод сжатия : С потерями

Размер потока : 119 Мбайт (5%)

Заголовок : Russian

Язык : Russian

ServiceKind : Complete Main

Default : Да

Forced : Нет



Аудио #2

Идентификатор : 3

Формат : E-AC-3

Формат/Информация : Enhanced AC-3

Коммерческое название : Dolby Digital Plus

Идентификатор кодека : A_EAC3

Продолжительность : 43 м. 14 с.

Вид битрейта : Постоянный

Битрейт : 640 Кбит/сек

Каналы : 6 каналов

Channel layout : L R C LFE Ls Rs

Частота : 48,0 КГц

Частота кадров : 31,250 кадров/сек (1536 SPF)

Метод сжатия : С потерями

Размер потока : 198 Мбайт (8%)

Заголовок : English

Язык : English

ServiceKind : Complete Main

Default : Нет

Forced : Нет



Текст #1

Идентификатор : 4

Формат : UTF-8

Идентификатор кодека : S_TEXT/UTF8

Идентификатор кодека/Информация : UTF-8 Plain Text

Продолжительность : 42 м. 21 с.

Битрейт : 147 бит/сек

ElementCount : 744

Размер потока : 45,9 Кбайт (0%)

Заголовок : Russian

Язык : Russian

Default : Нет

Forced : Нет



Текст #2

Идентификатор : 5

Формат : UTF-8

Идентификатор кодека : S_TEXT/UTF8

Идентификатор кодека/Информация : UTF-8 Plain Text

Продолжительность : 42 м. 20 с.

Битрейт : 99 бит/сек

ElementCount : 1024

Размер потока : 30,7 Кбайт (0%)

Заголовок : SDH

Язык : English

Default : Нет

Forced : НетСкриншоты

Discussion

Comments 0

Post Your Comment

Files in this torrent

FILENAMESIZE
Elementary.S02E01.Step.Nine.WEB-DL.1080p.mkv2.5 GB
Elementary.S02E02.Solve.For.X.WEB-DL.1080p.mkv1.7 GB
Elementary.S02E03.We.Are.Everyone.WEB-DL.1080p.mkv2.2 GB
Elementary.S02E04.Poison.Pen.WEB-DL.1080p.mkv1.7 GB
Elementary.S02E05.Ancient.History.WEB-DL.1080p.mkv2.5 GB
Elementary.S02E06.An.Unnatural.Arrangement.WEB-DL.1080p.mkv1.6 GB
Elementary.S02E07.The.Marchioness.WEB-DL.1080p.mkv2.3 GB
Elementary.S02E08.Blood.Is.Thicker.WEB-DL.1080p.mkv1.4 GB
Elementary.S02E09.On.The.Line.WEB-DL.1080p.mkv1.6 GB
Elementary.S02E10.Tremors.WEB-DL.1080p.mkv1.4 GB
Elementary.S02E11.Internal.Audit.WEB-DL.1080p.mkv1.8 GB
Elementary.S02E12.The.Diabolical.Kind.WEB-DL.1080p.mkv1.4 GB
Elementary.S02E13.All.In.The.Family.WEB-DL.1080p.mkv1.7 GB
Elementary.S02E14.Dead.Clade.Walking.WEB-DL.1080p.mkv1.8 GB
Elementary.S02E15.Corpse.de.Ballet.WEB-DL.1080p.mkv1.5 GB
Elementary.S02E16.The.One.Percent.Solution.WEB-DL.1080p.mkv1.4 GB
Elementary.S02E17.Ears.to.You.WEB-DL.1080p.mkv1.3 GB
Elementary.S02E18.The.Hound.of.the.Cancer.Cells.WEB-DL.1080p.mkv1.3 GB
Elementary.S02E19.The.Many.Mouths.of.Andrew.Colville.WEB-DL.1080p.mkv1.5 GB
Elementary.S02E20.No.Lack.of.Void.WEB-DL.1080p.mkv1.6 GB
Elementary.S02E21.The.Man.With.the.Twisted.Lip.WEB-DL.1080p.mkv2 GB
Elementary.S02E22.Paint.it.Black.WEB-DL.1080p.mkv1.6 GB
Elementary.S02E23.Art.in.the.Blood.WEB-DL.1080p.mkv1.5 GB
Elementary.S02E24.The.Grand.Experiment.WEB-DL.1080p.mkv1.3 GB

Alternative Torrents for 'Elementary'.

TORRENT NAMEADDEDSIZESEEDSPEERSHEALTH
11/6/202023 MB30
11/13/20206 MB11
10/23/2020129 MB10
4/21/20213 MB00
4/13/20217 MB00
3/2/202121 MB00
2/24/202110 MB00
2/5/20212.3 GB00
1/28/2021130 MB00
1/13/20218 MB00
1/13/20213 MB00
1/10/202192 MB00
12/26/2020692 kB00
12/26/202011 MB00
12/25/20205 MB00