War Planets Shadow Raiders (1998, DVDRip-AVC, RUS+ENG) [Stranik 2 0]

Torrent Details


War Planets  Shadow Raiders (1998, DVDRip-AVC, RUS+ENG) [Stranik 2 0]

NAME
War Planets Shadow Raiders (1998, DVDRip-AVC, RUS+ENG) [Stranik 2 0].torrent
CATEGORY
Anime
INFOHASH
3b1d9ecc6fbad54a8b917c1b9477cc6d77a0a40f
SIZE
12.8 GB in 26 files
ADDED
Uploaded on 15-03-2019 by our crawler pet called "Spidey".
SWARM
0 seeders & 0 peers
RATING
No votes yet.

Please login to vote for this torrent.


Description

Информация о фильме



Название : Планета Монстров

Оригинальное название : War Planets: Shadow Raiders



Год выхода : 1998-1999

Страна : Канада

Производство : Mainframe Entertainment

Жанр : мультфильм, фантастика, боевик

Режиссеры : Джордж Самильски, Джеймс Тэйлор, Дуэйн Бивер

Роли озвучивали : Пол Добсон, Марк Оливер, Энука Окума, Гари Чок, Таша Симс, Донна Ямамото, Джим Бернс, Мэтт Хилл, Скотт МакНил, Теган Мосс

Роли дублировали : Сергей Чекан, Жанна Никонова, Андрей Бархударов, Дмитрий Матвеев, Татьяна Шагалова



Слоган : «For Worlds Without End. The End Is Near.»











Описание : Планетa Мoнстрoв — миф, стрaшнaя скaзка для детей. Так считали до тех пор, пoкa злыe и кровожадные ракопaуки полнoстью не уничтожили планету Тек. Смертельная угроза нависла над миром. Опустошение и разрушения, истребление и гибель ждут Костяную, Ледяную, Огненную и Каменную планеты, если их народы не объединятся. Отважный рудокоп Грейвхарт берётся сплотить враждующих правителей, и если ему это удастся, то монстрам несдобровать.



Доп. информация : Рип сделан из англоязычного DVD издания, подгонка русского дубляжа моя.





Продолжительность : ~00:22:18 (серия)

Перевод : Профессиональный (полное дублирование) [ СВ-Дубль ]





Автор рипа и релиза : Страник 2.0





Файл



Формат видео : MKV

Качество : DVDRip (Исходник: 2xDVD9 [Shadow Raiders 1988 Animated Complete Series Burntodisc])



Видео : AVC, 720x544 (4:3), 25.0 fps, 2756 Kbps (0.281 bit/pixel)

Звук 1: AC3, 48.0 KHz, 2 ch, ~192 Kbps (Русский)

Звук 2: AC3, 48.0 KHz, 2 ch, ~192 Kbps (Английский)

Субтитры : нет









Список серий



01. Берегись монстров / Behold, the beast

02. На Каменной планете / On the rock

03. Рожденные в огне / Born in fire

04. Плохой до самых костей / Bad to the Bone

05. Волк в овчарне / Wolf in the fold

06. Война разумов / Mino war

07. Обвинение / J`accuse

08. Еще больше крови / Blood is thicker

09. Камни и руины / Rock and run

10. Вопреки всему / Against all odds

11. Отказ от лидерства / Uneasy hangs the head

12. Решающая битва (часть 1) / Ragnarok - part I

13. Решающая битва (часть 2) / Ragnarok - part II

14. Миры внутри миров / Worlds within worlds

15. Так приходит конец света / This is way the worlds end

16. Период приспособления / Period of adjustment

17. Блеск славы / A blaze of glory

18. Песчаная буря / Sandstorm

19. У девушек выходной / Girls night out

20. Мина замедленного действия / Timebomb

21. Пепел прошлого / Embers of the past

22. Разделены, но не сломаны / Divided we stand

23. Не надежная клетка / Nor iron bars a cage

24. Смерть короля / Death of the king

25. Долгая дорога домой / The long road home

26. Восхождение / Ascension




Скриншоты















MediaInfo



General

Unique ID : 187671744139736077003636554343623024071 (0x8D30435F76B1F85197C1F45D502DDDC7)

Complete name : E:/Torrent_2/War Planets. Shadow Raiders (1998, DVDRip-AVC, RUS+ENG) [Stranik 2.0]/01. Behold, the beast.mkv

Format : Matroska

Format version : Version 2

File size : 502 MiB

Duration : 22mn 19s

Overall bit rate : 3 142 Kbps

Encoded date : UTC 2016-06-10 14:43:27

Writing application : mkvmerge v5.5.0 ('Healer') built on Apr 6 2012 21:43:24

Writing library : libebml v1.2.3 + libmatroska v1.3.0

DURATION : 00:22:19.480000000

NUMBER_OF_FRAMES : 33487

NUMBER_OF_BYTES : 461462675

_STATISTICS_WRITING_APP : mkvmerge v8.5.2 ('Crosses') 32bit

_STATISTICS_WRITING_DATE_UTC : 2016-06-01 13:08:42

_STATISTICS_TAGS : BPS DURATION NUMBER_OF_FRAMES NUMBER_OF_BYTES



Video #1

ID : 1

Format : AVC

Format/Info : Advanced Video Codec

Format profile : [email protected]

Format settings, CABAC : Yes

Format settings, ReFrames : 7 frames

Codec ID : V_MPEG4/ISO/AVC

Duration : 22mn 19s

Bit rate : 2 756 Kbps

Width : 720 pixels

Height : 544 pixels

Display aspect ratio : 4:3

Frame rate mode : Constant

Frame rate : 25.000 fps

Color space : YUV

Chroma subsampling : 4:2:0

Bit depth : 8 bits

Scan type : Progressive

Bits/(Pixel*Frame) : 0.281

Stream size : 430 MiB (86%)

Writing library : x264 core 148 r2638 7599210

Encoding settings : cabac=1 / ref=7 / deblock=1:1:1 / analyse=0x3:0x113 / me=umh / subme=11 / psy=1 / psy_rd=0.40:0.00 / mixed_ref=1 / me_range=28 / chroma_me=0 / trellis=2 / 8x8dct=1 / cqm=0 / deadzone=21,11 / fast_pskip=1 / chroma_qp_offset=-2 / threads=3 / lookahead_threads=1 / sliced_threads=0 / nr=0 / decimate=1 / interlaced=0 / bluray_compat=0 / constrained_intra=0 / bframes=16 / b_pyramid=2 / b_adapt=2 / b_bias=0 / direct=3 / weightb=1 / open_gop=0 / weightp=2 / keyint=300 / keyint_min=25 / scenecut=40 / intra_refresh=0 / rc_lookahead=40 / rc=2pass / mbtree=1 / bitrate=2756 / ratetol=1.0 / qcomp=0.60 / qpmin=0 / qpmax=69 / qpstep=4 / cplxblur=20.0 / qblur=0.5 / ip_ratio=1.40 / aq=1:0.60

Language : English

Default : Yes

Forced : No



Audio #2

ID : 2

Format : AC-3

Format/Info : Audio Coding 3

Mode extension : CM (complete main)

Format settings, Endianness : Big

Codec ID : A_AC3

Duration : 22mn 19s

Bit rate mode : Constant

Bit rate : 192 Kbps

Channel(s) : 2 channels

Channel positions : Front: L R

Sampling rate : 48.0 KHz

Bit depth : 16 bits

Compression mode : Lossy

Stream size : 30.7 MiB (6%)

Title : DUB

Language : Russian

Default : Yes

Forced : No



Audio #3

ID : 3

Format : AC-3

Format/Info : Audio Coding 3

Mode extension : CM (complete main)

Format settings, Endianness : Big

Codec ID : A_AC3

Duration : 22mn 19s

Bit rate mode : Constant

Bit rate : 192 Kbps

Channel(s) : 2 channels

Channel positions : Front: L R

Sampling rate : 48.0 KHz

Bit depth : 16 bits

Compression mode : Lossy

Stream size : 30.7 MiB (6%)

Title : Original

Language : English

Default : No

Forced : No







Моя максимальная скорость отдачи 100КБ/c

Раздаю с 7:00 до 1:00 по Москве

Discussion

Comments 0

Post Your Comment

Files in this torrent

FILENAMESIZE
01. Behold, the beast.mkv501.7 MB
02. On the rock.mkv501.2 MB
03. Born in fire.mkv501.3 MB
04. Bad to the Bone.mkv502 MB
05. Wolf in the fold.mkv502.5 MB
06. Mino war.mkv485.7 MB
07. J`accuse.mkv501.3 MB
08. Blood is thicker.mkv501.3 MB
09. Rock and run.mkv501.3 MB
10. Against all odds.mkv501.5 MB
11. Uneasy hangs the head.mkv501.5 MB
12. Ragnarok - part I.mkv501 MB
13. Ragnarok - part II.mkv490.4 MB
14. Worlds within worlds.mkv511.6 MB
15. This is way the worlds end.mkv502 MB
16. Period of adjustment.mkv511.7 MB
17. A blaze of glory.mkv511.8 MB
18. Sandstorm.mkv512.8 MB
19. Girls night out.mkv512.2 MB
20. Timebomb.mkv511.9 MB
21. Embers of the past.mkv512.2 MB
22. Divided we stand.mkv512.4 MB
23. Nor iron bars a cage.mkv504.4 MB
24. Death of the king.mkv512.3 MB
25. The long road home.mkv512.1 MB
26. Ascension.mkv512.2 MB

Alternative Torrents for 'War Planets Shadow Raiders DVDRipAVC RUSENG Stranik'.

There are no alternative torrents found.