Warning! Do NOT Download Without a VPN!
Your IP Address is .   Location is United States
Your Internet Provider and Government can track your download activities! Hide your IP ADDRESS with a VPN!
We strongly recommend using a VPN service to anonymize your torrent downloads. It's FREE!
START YOUR FREE TRIAL NOW!

1337xHD Com-Nela Ticket (2019) Hindi Dubbed 720p HDRip X264 AAC 900MB

Torrent Details

1337xHD Com-Nela Ticket (2019) Hindi Dubbed 720p HDRip x264 AAC 900MB

NAME
1337xHD Com-Nela Ticket (2019) Hindi Dubbed 720p HDRip x264 AAC 900MB.torrent
CATEGORY
Movies
INFOHASH
907ec490aaebdc2fa72d7fe8ff6f44e237027f7b
SIZE
935 MB in 2 files
ADDED
Uploaded on 17-03-2019 by our crawler pet called "Spidey".
SWARM
0 seeders & 0 peers
RATING
No votes yet.

Please login to vote for this torrent.


Description

https://1337xhd.com/


autumn poems by famous poets



General
Format : Matroska
Format version : Version 4
File size : 935 MiB
Duration : 2 h 3 min
Overall bit rate : 1 060 kb/s
Movie name : www.1337xHD.Com
Encoded date : UTC 2019-02-27 19:43:19
Writing application : mkvmerge v31.0.0 ('Dolores In A Shoestand') 64-bit
Writing library : libebml v1.3.6 + libmatroska v1.4.9 / Lavf58.26.100

Video
ID : 1
Format : AVC
Format/Info : Advanced Video Codec
Format profile : [email protected]
Format settings : CABAC / 4 Ref Frames
Format settings, CABAC : Yes
Format settings, RefFrames : 4 frames
Codec ID : V_MPEG4/ISO/AVC
Duration : 2 h 3 min
Bit rate : 1 015 kb/s
Width : 1 280 pixels
Height : 720 pixels
Display aspect ratio : 16:9
Frame rate mode : Constant
Frame rate : 25.000 FPS
Color space : YUV
Chroma subsampling : 4:2:0
Bit depth : 8 bits
Scan type : Progressive
Bits/(Pixel*Frame) : 0.044
Stream size : 891 MiB (95%)
Title : www.1337xHD.Com / ISO Media file produced by Google Inc. Created on: 02/26/2019.
Writing library : x264 core 148 r2643 5c65704
Default : Yes
Forced : No

Audio
ID : 2
Format : AAC LC
Format/Info : Advanced Audio Codec Low Complexity
Codec ID : A_AAC-2
Duration : 2 h 3 min
Bit rate : 48.0 kb/s
Channel(s) : 1 channel
Channel layout : C
Sampling rate : 44.1 kHz
Frame rate : 43.066 FPS (1024 SPF)
Compression mode : Lossy
Stream size : 42.3 MiB (5%)
Title : www.1337xHD.Com / ISO Media file produced by Google Inc. Created on: 02/26/2019.
Writing library : Lavc58.46.100 libfdk_aac
Language : Hindi
Default : Yes
Forced : No









autumn poems by famous poets

Discussion

Comments 0

Post Your Comment

Files in this torrent

FILENAMESIZE
1337xHD.Com Exclusive Movie & TV Show Site URL.txt46 B
1337xHD.Com-Nela Ticket (2019) Hindi Dubbed 720p HDRip x264 AAC 900MB (1).mkv935.1 MB

Alternative Torrents for 'xHD ComNela Ticket Hindi Dubbed AAC MB'.

TORRENT NAME ADDED SIZE SEEDS PEERS HEALTH
Yesterday 448 MB 1804 292
4/5/2019 1.6 GB 867 2445
4/16/2019 1.3 GB 821 244
4/17/2019 706 MB 814 336
3/1/2019 996 MB 795 88
1/31/2019 1.5 GB 650 7
4/11/2019 1.2 GB 590 292
4/14/2019 2 GB 574 83
Yesterday 4.5 GB 512 119
3/25/2019 1.3 GB 500 151
3/9/2019 799 MB 485 75
4/17/2019 1.1 GB 471 486
3/20/2019 1.2 GB 470 49
3/13/2019 3.4 GB 435 4
3/20/2019 4.2 GB 421 6