Warning! Do NOT Download Without a VPN!
Your IP Address is .   Location is United States
Your Internet Provider and Government can track your download activities! Hide your IP ADDRESS with a VPN!
We strongly recommend using a VPN service to anonymize your torrent downloads. It's FREE!
START YOUR FREE TRIAL NOW!

Bohemian Rhapsody

Torrent Details

Bohemian Rhapsody

NAME
Bohemian Rhapsody.torrent
CATEGORY
Movies
INFOHASH
bac9789c92e27b962d7954ed0c7b425a55a70666
SIZE
2.1 GB in 6 files
ADDED
Uploaded on 17-03-2019 by our crawler pet called "Spidey".
SWARM
15 seeders & 8 peers
RATING
No votes yet.

Please login to vote for this torrent.


Description

IMDb Info for this Film
[youtube]mP0VHJYFOAU[/youtube]


General
Complete name : BOHEMIAN_RHAPSODY.theatrical_1.mp4
Format : MPEG-4
Format profile : Base Media / Version 2
Codec ID : mp42 (mp42/isom/avc1)
File size : 2.07 GiB
Duration : 2 h 14 min
Overall bit rate mode : Variable
Overall bit rate : 2 196 kb/s
Movie name : BOHEMIAN_RHAPSODY.theatrical_1
Album : BOHEMIAN_RHAPSODY
Encoded date : UTC 2019-03-06 01:08:49
Tagged date : UTC 2019-03-06 02:14:07
Writing application : DVDFab 11.0.1.7
Cover : Yes

Video
ID : 1
Format : AVC
Format/Info : Advanced Video Codec
Format profile : [email protected]
Format settings : CABAC / 2 Ref Frames
Format settings, CABAC : Yes
Format settings, RefFrames : 2 frames
Format settings, GOP : M=1, N=24
Codec ID : avc1
Codec ID/Info : Advanced Video Coding
Duration : 2 h 14 min
Source duration : 2 h 14 min
Bit rate mode : Variable
Bit rate : 1 735 kb/s
Maximum bit rate : 2 776 kb/s
Width : 1 920 pixels
Height : 804 pixels
Display aspect ratio : 2.40:1
Frame rate mode : Constant
Frame rate : 23.976 (24000/1001) FPS
Color space : YUV
Chroma subsampling : 4:2:0
Bit depth : 8 bits
Scan type : Progressive
Bits/(Pixel*Frame) : 0.047
Stream size : 1.63 GiB (79%)
Source stream size : 1.63 GiB (79%)
Encoded date : UTC 2019-03-06 01:08:49
Tagged date : UTC 2019-03-06 02:14:07
Color primaries : BT.709
Transfer characteristics : BT.709
Matrix coefficients : BT.709
Menus : 4

Audio
ID : 2
Format : AAC
Format/Info : Advanced Audio Codec
Format profile : LC
Codec ID : mp4a-40-2
Duration : 2 h 14 min
Bit rate mode : Variable
Bit rate : 452 kb/s
Channel(s) : 6 channels
Channel positions : Front: L C R, Side: L R, LFE
Sampling rate : 48.0 kHz
Frame rate : 46.875 FPS (1024 SPF)
Compression mode : Lossy
Stream size : 431 MiB (20%)
Title : English (aac 5.1)
Language : English
Default : Yes
Alternate group : 1
Encoded date : UTC 2019-03-06 01:08:49
Tagged date : UTC 2019-03-06 02:14:06

Text
ID : 3
Format : VobSub
Codec ID : mp4s-E0
Codec ID/Info : The same subtitle format used on DVDs
Duration : 2 h 11 min
Bit rate mode : Variable
Bit rate : 11.1 kb/s
Maximum bit rate : 4 249 Mb/s
Stream size : 10.4 MiB (0%)
Language : English
Default : Yes
Forced : No
Alternate group : 2
Encoded date : UTC 2019-03-06 01:08:49
Tagged date : UTC 2019-03-06 02:12:54

Discussion

Comments 0

Post Your Comment

Files in this torrent

FILENAMESIZE
BOHEMIAN_RHAPSODY.theatrical_1.mp42.1 GB
Read me.rtf3.7 MB
screenshot322.jpg34.5 KB
screenshot323.jpg76.6 KB
screenshot324.jpg34.6 KB
screenshot325.jpg67.1 KB

Alternative Torrents for 'Bohemian Rhapsody'.

TORRENT NAME ADDED SIZE SEEDS PEERS HEALTH
1/22/2019 2.2 GB 1562 41
2/6/2019 2.2 GB 1478 56
1/22/2019 1.1 GB 1175 58
2/1/2019 2.2 GB 1153 51
2/9/2019 5.8 GB 1109 48
2/1/2019 1.1 GB 890 51
2/16/2019 2.2 GB 736 37
2/6/2019 1.5 GB 568 8
1/31/2019 1.4 GB 481 29
2/3/2019 1.4 GB 451 22
1/22/2019 1.1 GB 420 41
2/5/2019 3.2 GB 268 11
2/3/2019 5.1 GB 259 4
2/9/2019 2.5 GB 250 65
2/14/2019 3.4 GB 248 65