Kokoro Ga Sakebitagatterunda [BDRip] [720p]

Torrent Details


Kokoro ga Sakebitagatterunda [BDRip] [720p]

NAME
Kokoro ga Sakebitagatterunda [BDRip] [720p].torrent
CATEGORY
Anime
INFOHASH
2cbd29b3959996eb9058414f57b93c4bb536918d
SIZE
1.3 GB in 1 file
ADDED
Uploaded on 18-03-2019 by our crawler pet called "Spidey".
SWARM
0 seeders & 0 peers
RATING
No votes yet.

Please login to vote for this torrent.


Description

Информация о фильме

Название: Сердцу хочется петь

Оригинальное название: Kokoro ga Sakebitagatterunda Kokosake

Год выхода: 2015

Жанр: романтика, драма, школа

Режиссер: Тацуюки Нагаи

В ролях: Сора Амамия, Ёсимаса Хосоя, Инори Минасэ, Коки Утияма

О фильме:

Фильм расскажет о девушке, которая потеряла возможность говорить. В детстве по её вине распалась семья, а позже откуда ни возьмись появился дух в виде яйца и, чтобы она больше никого не ранила, «запечатал» её речь.





World Art | MAL



Страна: Япония

Студия: A-1 Pictures Inc.

Продолжительность: 01:58:18

Язык: Русский, Японский

Перевод: Любительский (многоголосый, закадровый)



Файл

Качество: BDRip 720p

Формат: MKV

Кодек: H.264

Аудио кодек: AAC

Видео: 1280x720, 23.976 fps, 1236 kbps

Аудио RUS: 48.0 kHz, AAC, 2 ch, 192 kbps

Аудио JAP: 48.0 kHz, AAC, 2 ch, 192 kbps

Субтитры: русские (встроенные полный перевод, ASS) - Timecraft & Endil

Субтитры: русские (встроенные полный перевод, ASS) - AOS Team



Релиз от:

Озвучивание: Cuba77, BalFor, Oriko, Nika Lenina

Перевод: AleX_MytH, Endil, Nachtwandler, Seiya Loveless, Surokune

Тайминг и работа со звуком: NeSqUiK, Sumatra



Скриншоты

MediaInfoGeneral

Format : Matroska

Format version : Version 4 / Version 2

File size : 1.35 GiB

Duration : 1h 59mn

Overall bit rate : 1 615 Kbps

Encoded date : UTC 2016-06-04 07:19:08

Writing application : mkvmerge v8.3.0 ('Over the Horizon') 64bit

Writing library : libebml v1.3.1 + libmatroska v1.4.2



Video

ID : 1

Format : AVC

Format/Info : Advanced Video Codec

Format profile : [email protected]

Format settings, CABAC : Yes

Format settings, ReFrames : 4 frames

Codec ID : V_MPEG4/ISO/AVC

Duration : 1h 59mn

Bit rate : 1 236 Kbps

Width : 1 280 pixels

Height : 720 pixels

Display aspect ratio : 16:9

Frame rate mode : Constant

Frame rate : 23.976 (24000/1001) fps

Color space : YUV

Chroma subsampling : 4:2:0

Bit depth : 8 bits

Scan type : Progressive

Bits/(Pixel*Frame) : 0.056

Stream size : 1.03 GiB (77%)

Writing library : x264 core 148 r2665 a01e339

Encoding settings : cabac=1 / ref=3 / deblock=1:0:0 / analyse=0x1:0x131 / me=umh / subme=9 / psy=1 / psy_rd=1.00:0.00 / mixed_ref=1 / me_range=32 / chroma_me=1 / trellis=1 / 8x8dct=0 / cqm=0 / deadzone=21,11 / fast_pskip=1 / chroma_qp_offset=-2 / threads=12 / lookahead_threads=1 / sliced_threads=0 / nr=0 / decimate=1 / interlaced=0 / bluray_compat=0 / constrained_intra=0 / bframes=3 / b_pyramid=2 / b_adapt=1 / b_bias=0 / direct=1 / weightb=1 / open_gop=0 / weightp=2 / keyint=240 / keyint_min=1 / scenecut=40 / intra_refresh=0 / rc_lookahead=40 / rc=crf / mbtree=1 / crf=17.0 / qcomp=0.60 / qpmin=0 / qpmax=69 / qpstep=4 / ip_ratio=1.40 / aq=1:1.00

Default : Yes

Forced : No



Audio #1

ID : 2

Format : AAC

Format/Info : Advanced Audio Codec

Format profile : LC

Codec ID : A_AAC

Duration : 1h 59mn

Bit rate : 192 Kbps

Channel(s) : 2 channels

Channel positions : Front: L R

Sampling rate : 48.0 KHz

Frame rate : 46.875 fps (1024 spf)

Compression mode : Lossy

Stream size : 164 MiB (12%)

Title : AniDub

Language : Russian

Default : Yes

Forced : No



Audio #2

ID : 3

Format : AAC

Format/Info : Advanced Audio Codec

Format profile : LC

Codec ID : A_AAC

Duration : 1h 59mn

Bit rate : 183 Kbps

Channel(s) : 2 channels

Channel positions : Front: L R

Sampling rate : 48.0 KHz

Frame rate : 46.875 fps (1024 spf)

Compression mode : Lossy

Stream size : 156 MiB (11%)

Title : Original

Language : Japanese

Default : No

Forced : No



Text #1

ID : 4

Format : ASS

Codec ID : S_TEXT/ASS

Codec ID/Info : Advanced Sub Station Alpha

Duration : 1h 59mn

Bit rate : 648 bps

Count of elements : 4250

Compression mode : Lossless

Stream size : 565 KiB (0%)

Title : Timecraft & Endil

Language : Russian

Default : Yes

Forced : No



Text #2

ID : 5

Format : ASS

Codec ID : S_TEXT/ASS

Codec ID/Info : Advanced Sub Station Alpha

Duration : 1h 54mn

Bit rate : 206 bps

Count of elements : 1921

Compression mode : Lossless

Stream size : 173 KiB (0%)

Title : AOS Team

Language : Russian

Default : No

Forced : No

Discussion

Comments 0

Post Your Comment

Files in this torrent

FILENAMESIZE
Kokoro ga Sakebitagatterunda.mkv1.3 GB

Alternative Torrents for 'Kokoro ga Sakebitagatterunda'.

TORRENT NAMEADDEDSIZESEEDSPEERSHEALTH
7/28/20201.8 GB224
3/26/20191.2 GB00
3/18/20191.3 GB00
3/15/20191.6 GB00
11/16/20171.1 GB00
4/22/20165.5 GB00
4/22/20161.2 GB00
4/1/20161.6 GB00