Warning! Do NOT Download Without a VPN!
Your IP Address is .   Location is United States
Your Internet Provider and Government can track your download activities! Hide your IP ADDRESS with a VPN!
We strongly recommend using a VPN service to anonymize your torrent downloads. It's FREE!
START YOUR FREE TRIAL NOW!

Kak Ya Stal Russkim 2018 WEB-DLRip AVC ExKinoRay

Torrent Details

Kak ya stal russkim 2018 WEB-DLRip AVC ExKinoRay

NAME
Kak ya stal russkim 2018 WEB-DLRip AVC ExKinoRay.torrent
CATEGORY
Movies
INFOHASH
9bba6ddfa5b829d429c3d0ba944b1885f87aff16
SIZE
1.5 GB in 1 file
ADDED
Uploaded on 19-03-2019 by our crawler pet called "Spidey".
SWARM
361 seeders & 4 peers
RATING
No votes yet.

Please login to vote for this torrent.


Description

Оригинальное название: Как я стал русским

Год выпуска: 2018

Жанр: Комедия

Режиссер: Акаки Сахелашвили, Ся Хао

В ролях: Дун Чан, Елизавета Кононова, Виталий Хаев, Грант Тохатян, Сергей Чирков, Наталья Суркова, Вадим Смирнов, Дмитрий Смирнов, Александр Семенов, Вера Гурьева



Описание:

Понравиться отцу своей невесты — задача не из легких. С этой проблемой сталкивается и китайский парень Пен, когда отправляется в Москву за своей любовью — Ирой, даже не подозревая, какой кошмар его ждет. Ведь ее отец Анатолий совсем не готов отдавать свою дочь первому встречному, и у него на этот случай припасен свой план по избавлению…



Однако, отцу невесты и жениху придется научиться уважать друг друга, если они хотят сохранить рядом с собой девушку, которую любят больше всего на свете.







Выпущено: Россия, Китай, All Media Company, Централ Партнершип, Кинокомпания «Небо», Zhejiang Huace Film & TV

Продолжительность: 01:34:19

Язык: Русский | iTunes



БЕЗ КАКОЙ-ЛИБО РЕКЛАМЫ!



Формат: MKV

Качество: WEB-DLRip-AVC

Видео: MPEG-4 AVC, 1024x428 (2.40:1), 24.000 fps, 1920 Kbps, 0.183 bit/pixel

Аудио: 48 kHz, AC3, 5.1, 384 Kbps | RUS |



ОтчетМедиаИнфо

General

Unique ID : 192205913690640099190794714454960360947 (0x90998331015A0BA39C58DB1D75DFCDF3)

Complete name : D:Kak.ya.stal.russkim.2018.WEB-DLRip.AVC.ExKinoRay.mkv

Format : Matroska

Format version : Version 2

File size : 1.52 GiB

Duration : 1 h 34 min

Overall bit rate : 2 303 kb/s

Movie name : Как я стал русским 2018 from ExKinoRay

Encoded date : UTC 2019-03-07 01:24:03

Writing application : mkvmerge v5.6.0 ('Kenya Kane') built on May 27 2012 16:44:04

Writing library : libebml v1.2.3 + libmatroska v1.3.0



Video

ID : 1

Format : AVC

Format/Info : Advanced Video Codec

Format profile : [email protected]

Format settings, CABAC : Yes

Format settings, ReFrames : 11 frames

Codec ID : V_MPEG4/ISO/AVC

Duration : 1 h 34 min

Bit rate : 1 920 kb/s

Width : 1 024 pixels

Height : 428 pixels

Display aspect ratio : 2.40:1

Frame rate mode : Constant

Frame rate : 24.000 FPS

Color space : YUV

Chroma subsampling : 4:2:0

Bit depth : 8 bits

Scan type : Progressive

Bits/(Pixel*Frame) : 0.183

Stream size : 1.23 GiB (81%)

Title : Enigma

Writing library : x264 core 152 r2851 ba24899

Encoding settings : cabac=1 / ref=11 / deblock=1:-2:-2 / analyse=0x3:0x113 / me=umh / subme=10 / psy=1 / psy_rd=1.05:0.10 / mixed_ref=1 / me_range=32 / chroma_me=1 / trellis=2 / 8x8dct=1 / cqm=0 / deadzone=21,11 / fast_pskip=0 / chroma_qp_offset=-3 / threads=12 / lookahead_threads=2 / sliced_threads=0 / nr=0 / decimate=0 / interlaced=0 / bluray_compat=0 / constrained_intra=0 / bframes=9 / b_pyramid=2 / b_adapt=2 / b_bias=0 / direct=3 / weightb=1 / open_gop=0 / weightp=2 / keyint=240 / keyint_min=24 / scenecut=40 / intra_refresh=0 / rc=2pass / mbtree=0 / bitrate=1920 / ratetol=1.0 / qcomp=0.65 / qpmin=0 / qpmax=51 / qpstep=4 / cplxblur=20.0 / qblur=0.5 / ip_ratio=1.30 / pb_ratio=1.20 / aq=1:1.00

Language : English

Default : Yes

Forced : No

Color range : Limited

Color primaries : BT.709

Transfer characteristics : BT.709

Matrix coefficients : BT.709



Audio

ID : 2

Format : AC-3

Format/Info : Audio Coding 3

Mode extension : CM (complete main)

Format settings, Endianness : Big

Codec ID : A_AC3

Duration : 1 h 34 min

Bit rate mode : Constant

Bit rate : 384 kb/s

Channel(s) : 6 channels

Channel positions : Front: L C R, Side: L R, LFE

Sampling rate : 48.0 kHz

Frame rate : 31.250 FPS (1536 spf)

Compression mode : Lossy

Stream size : 259 MiB (17%)

Language : Russian

Default : Yes

Forced : No



Menu

00:00:00.000 : en:Глава 1

00:08:49.916 : en:Глава 2

00:17:20.623 : en:Глава 3

00:25:21.956 : en:Глава 4

00:33:43.121 : en:Глава 5

00:42:12.371 : en:Глава 6

00:50:17.412 : en:Глава 7

00:58:32.078 : en:Глава 8

01:06:41.786 : en:Глава 9

01:14:05.661 : en:Глава 10

01:22:08.661 : en:Глава 11

01:29:17.493 : en:Глава 12













Релиз от:



Автор релиза:

Discussion

Comments 0

Post Your Comment

Files in this torrent

FILENAMESIZE
Kak.ya.stal.russkim.2018.WEB-DLRip.AVC.ExKinoRay.mkv1.5 GB

Alternative Torrents for 'Kak ya stal russkim DLRip AVC ExKinoRay'.

There are no alternative torrents found.