Coraline 2009 BDRip 1080p Rus

Torrent Details


Coraline 2009 BDRip 1080p Rus

NAME
Coraline 2009 BDRip 1080p Rus.torrent
CATEGORY
Anime
INFOHASH
a9e02d60e2f18aa5453cfde38d648c6ce9874390
SIZE
4.4 GB in 1 file
ADDED
Uploaded on 22-03-2019 by our crawler pet called "Spidey".
SWARM
0 seeders & 0 peers
RATING
No votes yet.

Please login to vote for this torrent.


Description

Информация о фильме

Название: Коралина в Стране Кошмаров

Оригинальное название: Coraline

Год выхода: 2009

Жанр: мультфильм, фэнтези, триллер, приключения, семейный

Режиссер: Генри Селик

В ролях: Дакота Фаннинг, Кит Дэвид, Тери Хэтчер, Дженнифер Сoндерс, Доун Френч, Джон Хуткман, Роберт Бэйли мл., Иэн МакШейн, Аанха Нил, Джордж Селик



О фильме: Коралина, маленькая девочка, попадает в другой мир, скрытый за секретной дверцей. Этот мир — ее альтернативная жизнь, которая не перестает ее радовать, все здесь хорошо, но только до поры до времени. Однажды она понимает, что ее настоящим родителям за ее проделки угрожает смертельная опасность. Коралине придется найти выход из мира, наполненного призраками, в реальную жизнь…









Выпущено: Focus Features

Продолжительность: 01:40:34

Перевод: Дублированный



Файл

Кодек: x264

Качество: BDRip (источник: Blu-ray Disc)

Видео: 1920x1040 (16:9), 23.976 fps, 5773 kbps

Звук: 48 kHz, AC-3, 6 ch, 448 kbps

Субтитры: Русские, Английские

Скачать: сэмпл



Скриншоты



MIОбщее

Уникальный идентификатор : 252423158243787893887740920878241264316 (0xBDE6EE91C66A4EBBB2270B7F34D9B2BC)

Полное имя : Coraline.2009.BDRip.1080p.Rus.mkv

Формат : Matroska

Версия формата : Version 2

Размер файла : 4,37 Гбайт

Продолжительность : 1 ч. 40 м.

Общий поток : 6222 Кбит/сек

Дата кодирования : UTC 2011-10-29 16:52:44

Программа кодирования : mkvmerge v4.0.0 ('The Stars were mine') сборка от Jun 6 2010 16:18:42

Библиотека кодирования : libebml v1.0.0 + libmatroska v1.0.0



Видео

Идентификатор : 1

Формат : AVC

Формат/Информация : Advanced Video Codec

Профиль формата : [email protected]

Параметр CABAC формата : Да

Параметр ReFrames формата : 4 кадра

Идентификатор кодека : V_MPEG4/ISO/AVC

Продолжительность : 1 ч. 40 м.

Битрейт : 5773 Кбит/сек

Ширина : 1920 пикселей

Высота : 1040 пикселей

Соотношение сторон : 16:9

Частота кадров : 23,976 кадра/сек

Цветовое пространство : YUV

Субдискретизация насыщенности : 4:2:0

Битовая глубина : 8 бит

Тип развёртки : Прогрессивная

Бит/(Пиксели*Кадры) : 0.121

Размер потока : 3,97 Гбайт (91%)

Библиотека кодирования : x264 core 119 r2106 07efeb4

Настройки программы : cabac=1 / ref=4 / deblock=1:0:0 / analyse=0x3:0x133 / me=umh / subme=10 / psy=1 / psy_rd=1.00:0.00 / mixed_ref=1 / me_range=32 / chroma_me=1 / trellis=2 / 8x8dct=1 / cqm=0 / deadzone=21,11 / fast_pskip=0 / chroma_qp_offset=-2 / threads=12 / sliced_threads=0 / nr=0 / decimate=1 / interlaced=0 / bluray_compat=0 / constrained_intra=0 / bframes=3 / b_pyramid=2 / b_adapt=2 / b_bias=0 / direct=3 / weightb=1 / open_gop=0 / weightp=2 / keyint=240 / keyint_min=24 / scenecut=40 / intra_refresh=0 / rc_lookahead=60 / rc=2pass / mbtree=1 / bitrate=5773 / ratetol=1.0 / qcomp=0.60 / qpmin=0 / qpmax=69 / qpstep=4 / cplxblur=20.0 / qblur=0.5 / ip_ratio=1.40 / aq=1:1.00

Язык : English



Аудио

Идентификатор : 2

Формат : AC-3

Формат/Информация : Audio Coding 3

Расширение режима : CM (complete main)

Идентификатор кодека : A_AC3

Продолжительность : 1 ч. 40 м.

Вид битрейта : Постоянный

Битрейт : 448 Кбит/сек

Каналы : 6 каналов

Расположение каналов : Front: L C R, Side: L R, LFE

Частота : 48,0 КГц

Битовая глубина : 16 бит

Метод сжатия : С потерями

Размер потока : 322 Мбайт (7%)

Язык : Russian



Текст #1

Идентификатор : 3

Формат : UTF-8

Идентификатор кодека : S_TEXT/UTF8

Идентификатор кодека/Информация : UTF-8 Plain Text

Язык : Russian



Текст #2

Идентификатор : 4

Формат : UTF-8

Идентификатор кодека : S_TEXT/UTF8

Идентификатор кодека/Информация : UTF-8 Plain Text

Язык : English



Меню

00:00:00.000 : :Chapter 01

00:08:12.283 : :Chapter 03

00:13:56.210 : :Chapter 04

00:18:26.730 : :Chapter 05

00:23:09.471 : :Chapter 06

00:26:45.770 : :Chapter 07

00:32:34.577 : :Chapter 09

00:36:57.173 : :Chapter 10

00:40:39.186 : :Chapter 11

00:44:19.907 : :Chapter 12

00:50:50.005 : :Chapter 14

00:55:04.551 : :Chapter 15

01:00:19.824 : :Chapter 17

01:05:54.867 : :Chapter 19

01:11:01.590 : :Chapter 21

01:15:23.685 : :Chapter 22

01:17:27.893 : :Chapter 23

01:21:20.709 : :Chapter 24

01:27:05.344 : :Chapter 26

01:34:42.635 : :Chapter 28

01:40:34.111 : :Chapter 29

Discussion

Comments 0

Post Your Comment

Files in this torrent

FILENAMESIZE
Coraline.2009.BDRip.1080p.Rus.mkv4.4 GB

Alternative Torrents for 'Coraline Rus'.

TORRENT NAMEADDEDSIZESEEDSPEERSHEALTH
3/22/20194.4 GB00