Warning! Do NOT Download Without a VPN!
Your IP Address is .   Location is United States
Your Internet Provider and Government can track your download activities! Hide your IP ADDRESS with a VPN!
We strongly recommend using a VPN service to anonymize your torrent downloads. It's FREE!
START YOUR FREE TRIAL NOW!

Grosse Pointe Blank 1997 1080p X264 -Grim

Torrent Details

Grosse Pointe Blank 1997 1080p x264 -Grim

NAME
Grosse Pointe Blank 1997 1080p x264 -Grim.torrent
CATEGORY
Movies
INFOHASH
064c3a08d2349a8c0bb1c7e6a65983582621f29a
SIZE
13.4 GB in 1 file
ADDED
Uploaded on 22-03-2019 by our crawler pet called "Spidey".
SWARM
0 seeders & 0 peers
RATING
No votes yet.

Please login to vote for this torrent.


Description

Год выпуска: 1997

Страна: США

Жанр: боевик, триллер, мелодрама, комедия, криминал

Продолжительность: 01:47:23

Перевод 1: Профессиональный (многоголосый, закадровый) Видеосервис

Перевод 2: Авторский (одноголосый, закадровый) Визгунов

Перевод 3: Авторский (одноголосый, закадровый) Живов

Перевод 4: Авторский (одноголосый, закадровый) Иванов

Субтитры: English



Режиссер: Джордж Эрмитаж / George Armitage



В ролях: Джон Кьюсак, Минни Драйвер, Алан Аркин, Дэн Эйкройд, Джоан Кьюсак, Хэнк Азария, К. Тодд Фриман, Джереми Пивен, Митч Райан, Майкл Кудлиц



Описание: Мартин Блэнк приезжает на встречу выпускников в свой родной городок Гросс-Пойнт. У него богатые планы на этот вечер: он должен помириться со своей бывшей девушкой, которую не видел десять лет, а заодно, чтобы совместить приятное с полезным… совершить убийство.



Ведь в отличии от остальных одноклассников, Мартин выбрал карьеру профессионального киллера, и в Гросс-Пойнте его ждет очередное задание. И не только его… За Мартином уже давно охотятся два правительственных агента и конкурент, которые не дадут гостям скучать.







Качество: BDRip 1080p (HDChina)

Формат: MKV



Видео: MPEG-4 AVC Video / 11,6 Мбит/сек / 1080p (1920x1040) / 23,976 fps / 16:9 / High Profile 4.1

Аудио 1: Russian: DTS 5.1 / 48 kHz / 1509 kbps / 24-bit |Многоголосый закадровый Видеосервис|

Аудио 2: Russian: DTS 5.1 / 48 kHz / 1509 kbps / 24-bit |Авторский (одноголосый закадровый) Визгунов|

Аудио 3: Russian: DTS 5.1 / 48 kHz / 1509 kbps / 24-bit |Авторский (одноголосый закадровый) Живов|

Аудио 4: Russian: AC3 Dolby Digital Audio / 2.0 / 48 kHz / 192 kbps |Авторский (одноголосый закадровый) Иванов|

Аудио 5: English: DTS 5.1 / 48 kHz / 1509 kbps / 24-bit - Original

Субтитры: Eng



Скриншоты



MediaInfo

Общее

Уникальный идентификатор : 238324404337394649708064573033150698276 (0xB34B9C55783D8D51A1F5016D65345324)

Полное имя : E:РелизыGrosse.Pointe.Blank 1997.1080p.x264.-Grim.mkv

Формат : Matroska

Версия формата : Version 2

Размер файла : 13,4 Гбайт

Продолжительность : 1 ч. 47 м.

Общий поток : 17,8 Мбит/сек

Дата кодирования : UTC 2012-08-06 14:55:12

Программа кодирования : mkvmerge v4.9.1 ('Ich will') сборка от Jul 11 2011 23:53:15

Библиотека кодирования : libebml v1.2.1 + libmatroska v1.1.1



Видео

Идентификатор : 1

Формат : AVC

Формат/Информация : Advanced Video Codec

Профиль формата : [email protected]

Параметр CABAC формата : Да

Параметр ReFrames формата : 4 кадра

Идентификатор кодека : V_MPEG4/ISO/AVC

Продолжительность : 1 ч. 47 м.

Битрейт : 11,6 Мбит/сек

Ширина : 1920 пикселей

Высота : 1040 пикселей

Соотношение сторон : 16:9

Частота кадров : 23,976 кадра/сек

Цветовое пространство : YUV

Субдискретизация насыщенности : 4:2:0

Битовая глубина : 8 бит

Тип развёртки : Прогрессивная

Бит/(Пиксели*Кадры) : 0.243

Размер потока : 8,45 Гбайт (63%)

Библиотека кодирования : x264 core 125 r2208 d9d2288

Настройки программы : cabac=1 / ref=4 / deblock=1:-3:-3 / analyse=0x3:0x133 / me=umh / subme=10 / psy=1 / psy_rd=1.00:0.00 / mixed_ref=1 / me_range=48 / chroma_me=1 / trellis=2 / 8x8dct=1 / cqm=0 / deadzone=21,11 / fast_pskip=1 / chroma_qp_offset=-2 / threads=12 / lookahead_threads=2 / sliced_threads=0 / nr=0 / decimate=0 / interlaced=0 / bluray_compat=0 / constrained_intra=0 / bframes=7 / b_pyramid=2 / b_adapt=2 / b_bias=0 / direct=3 / weightb=1 / open_gop=0 / weightp=2 / keyint=250 / keyint_min=23 / scenecut=40 / intra_refresh=0 / rc_lookahead=80 / rc=2pass / mbtree=1 / bitrate=11612 / ratetol=1.0 / qcomp=0.60 / qpmin=0 / qpmax=69 / qpstep=4 / cplxblur=20.0 / qblur=0.5 / vbv_maxrate=30000 / vbv_bufsize=30000 / nal_hrd=none / ip_ratio=1.50 / aq=1:1.00

Язык : English

Default : Да

Forced : Нет



Аудио #1

Идентификатор : 2

Формат : DTS

Формат/Информация : Digital Theater Systems

Идентификатор кодека : A_DTS

Продолжительность : 1 ч. 47 м.

Вид битрейта : Постоянный

Битрейт : 1510 Кбит/сек

Каналы : 6 каналов

Расположение каналов : Front: L C R, Side: L R, LFE

Частота : 48,0 КГц

Битовая глубина : 24 бит

Метод сжатия : С потерями

Размер потока : 1,13 Гбайт (8%)

Заголовок : MVO Видеосервис

Язык : Russian

Default : Да

Forced : Нет



Аудио #2

Идентификатор : 3

Формат : DTS

Формат/Информация : Digital Theater Systems

Идентификатор кодека : A_DTS

Продолжительность : 1 ч. 47 м.

Вид битрейта : Постоянный

Битрейт : 1510 Кбит/сек

Каналы : 6 каналов

Расположение каналов : Front: L C R, Side: L R, LFE

Частота : 48,0 КГц

Битовая глубина : 24 бит

Метод сжатия : С потерями

Размер потока : 1,13 Гбайт (8%)

Заголовок : Живов

Язык : Russian

Default : Нет

Forced : Нет



Аудио #3

Идентификатор : 4

Формат : DTS

Формат/Информация : Digital Theater Systems

Идентификатор кодека : A_DTS

Продолжительность : 1 ч. 47 м.

Вид битрейта : Постоянный

Битрейт : 1510 Кбит/сек

Каналы : 6 каналов

Расположение каналов : Front: L C R, Side: L R, LFE

Частота : 48,0 КГц

Битовая глубина : 24 бит

Метод сжатия : С потерями

Размер потока : 1,13 Гбайт (8%)

Заголовок : Визгунов

Язык : Russian

Default : Нет

Forced : Нет



Аудио #4

Идентификатор : 5

Формат : AC-3

Формат/Информация : Audio Coding 3

Расширение режима : CM (complete main)

Идентификатор кодека : A_AC3

Продолжительность : 1 ч. 47 м.

Вид битрейта : Постоянный

Битрейт : 192 Кбит/сек

Каналы : 2 канала

Расположение каналов : Front: L R

Частота : 48,0 КГц

Битовая глубина : 16 бит

Метод сжатия : С потерями

Размер потока : 147 Мбайт (1%)

Заголовок : AVO

Язык : Russian

Default : Нет

Forced : Нет



Аудио #5

Идентификатор : 6

Формат : DTS

Формат/Информация : Digital Theater Systems

Идентификатор кодека : A_DTS

Продолжительность : 1 ч. 47 м.

Вид битрейта : Постоянный

Битрейт : 1510 Кбит/сек

Каналы : 6 каналов

Расположение каналов : Front: L C R, Side: L R, LFE

Частота : 48,0 КГц

Битовая глубина : 24 бит

Метод сжатия : С потерями

Размер потока : 1,13 Гбайт (8%)

Заголовок : Original

Язык : English

Default : Нет

Forced : Нет



Текст

Идентификатор : 7

Формат : UTF-8

Идентификатор кодека : S_TEXT/UTF8

Идентификатор кодека/Информация : UTF-8 Plain Text

Язык : English

Default : Нет

Forced : Нет



Меню

00:00:00.000 : :00:00:00.000

00:00:30.405 : :00:00:30.405

00:07:45.590 : :00:07:45.590

00:11:55.882 : :00:11:55.882

00:21:10.269 : :00:21:10.269

00:23:43.255 : :00:23:43.255

00:27:13.757 : :00:27:13.757

00:42:30.923 : :00:42:30.923

00:51:55.863 : :00:51:55.863

00:58:43.270 : :00:58:43.270

01:06:19.142 : :01:06:19.142

01:08:44.287 : :01:08:44.287

01:18:49.934 : :01:18:49.934

01:23:19.161 : :01:23:19.161

01:30:20.415 : :01:30:20.415

01:36:45.591 : :01:36:45.591

01:43:24.990 : :01:43:24.990

Discussion

Comments 0

Post Your Comment

Files in this torrent

FILENAMESIZE
Grosse.Pointe.Blank 1997.1080p.x264.-Grim.mkv13.4 GB

Alternative Torrents for 'Grosse Pointe Blank Grim'.

TORRENT NAME ADDED SIZE SEEDS PEERS HEALTH
3/4/2019 32.6 GB 0 0
3/12/2019 5.3 GB 0 0