The Walking Dead S09E15 The Calm Before 1080p 5 1 - 2 0 X264 Phun Psyz

Torrent Details

The Walking Dead S09E15 The Calm Before 1080p 5 1 - 2 0 x264 Phun Psyz

NAME
The Walking Dead S09E15 The Calm Before 1080p 5 1 - 2 0 x264 Phun Psyz.torrent
CATEGORY
Television
INFOHASH
039ef287a0f76c07d2869bcfe6c7884a15df263c
SIZE
1.1 GB in 1 file
ADDED
Uploaded on 25-03-2019 by our crawler pet called "Spidey".
SWARM
1 seeders & 0 peers
RATING
No votes yet.

Please login to vote for this torrent.


Description

www.imdb.com/title/tt1520211/episodes?season=9



The fair at the Kingdom is underway, with all four communities coming together in celebration for the first time in years, while some pacts are renewed, other deals will come at a much steeper price.



Source: CasStudio (Amzn) (Repack)















Format                      : MPEG-4

Format profile              : Base Media / Version 2

Codec ID                    : mp42 (isom/iso2/avc1/mp41)

File size                   : 1.07 GiB

Duration                    : 57 min 46 s

Overall bit rate mode       : Variable

Overall bit rate            : 2 658 kb/s

Writing application         : HandBrake 1.2.0 2018121700



Video

ID                          : 1

Format                      : AVC

Format/Info                 : Advanced Video Codec

Format profile              : [email protected]

Format settings             : CABAC / 1 Ref Frames

Format settings, CABAC      : Yes

Format settings, ReFrames   : 1 frame

Codec ID                    : avc1

Codec ID/Info               : Advanced Video Coding

Duration                    : 57 min 46 s

Bit rate                    : 2 170 kb/s

Width                       : 1 920 pixels

Height                      : 1 080 pixels

Display aspect ratio        : 16:9

Frame rate                  : 23.976 (24000/1001) FPS

Color space                 : YUV

Chroma subsampling          : 4:2:0

Bit depth                   : 8 bits

Scan type                   : Progressive

Bits/(Pixel*Frame)          : 0.044

Stream size                 : 896 MiB (82%)

Writing library             : x264 core 157 r2935 545de2f



Audio #1

ID                          : 2

Format                      : AC-3

Format/Info                 : Audio Coding 3

Commercial name             : Dolby Digital

Codec ID                    : ac-3

Duration                    : 57 min 46 s

Bit rate mode               : Constant

Bit rate                    : 320 kb/s

Channel(s)                  : 6 channels

Channel layout              : L R C LFE Ls Rs

Sampling rate               : 48.0 kHz

Frame rate                  : 31.250 FPS (1536 SPF)

Bit depth                   : 16 bits

Compression mode            : Lossy

Stream size                 : 132 MiB (12%)

Title                       : Surround

Language                    : English



Audio #2

ID                          : 3

Format                      : AAC LC

Format/Info                 : Advanced Audio Codec Low Complexity

Codec ID                    : mp4a-40-2

Duration                    : 57 min 46 s

Bit rate mode               : Constant

Bit rate                    : 160 kb/s

Channel(s)                  : 2 channels

Channel layout              : L R

Sampling rate               : 48.0 kHz

Frame rate                  : 46.875 FPS (1024 SPF)

Compression mode            : Lossy

Stream size                 : 66.2 MiB (6%)

Title                       : Stereo

Language                    : English



Text

Language                    : English

Default                     : Yes

Forced                      : No

Language                    : English

Default                     : No

Forced                      : No

Discussion

Comments 0

Post Your Comment

Files in this torrent

FILENAMESIZE
The Walking Dead S09E15 The Calm Before 1080p 5.1 - 2.0 x264 Phun Psyz.mp41.1 GB

Alternative Torrents for 'Walking Dead Calm Before Phun Psyz'.

TORRENT NAMEADDEDSIZESEEDSPEERSHEALTH
3/25/20191.1 GB10