Shock Wave (2017) 720p Hindi Dubbed (DD 2 0) HDRip X264 AC3 ESub By Full4movies

Torrent Details

Shock Wave (2017) 720p Hindi Dubbed (DD 2 0) HDRip x264 AC3 ESub by Full4movies

NAME
Shock Wave (2017) 720p Hindi Dubbed (DD 2 0) HDRip x264 AC3 ESub by Full4movies.torrent
CATEGORY
Movies
INFOHASH
630f387c5915b33a0f08ebd3f7507396509bc413
SIZE
1.1 GB in 1 file
ADDED
Uploaded on 25-03-2019 by our crawler pet called "Spidey".
SWARM
0 seeders & 0 peers
RATING
No votes yet.

Please login to vote for this torrent.


Description

General
Complete name : Shock Wave (2017) 720p Hindi Dubbed (DD 2.0) HDRip x264 AC3 ESub by Full4movies.mkv
Format : Matroska
Format version : Version 4
File size : 1.06 GiB
Duration : 1 h 58 min
Overall bit rate : 1 286 kb/s
Movie name : www.full4movies.me
Encoded date : UTC 2019-03-22 11:44:15
Writing application : mkvmerge v6.9.1 ('Blue Panther') 32bit built on Apr 18 2014 18:15:44
Writing library : libebml v1.3.0 + libmatroska v1.4.1
Cover : Yes
Attachments : Cover.jpg

Video
ID : 1
Format : AVC
Format/Info : Advanced Video Codec
Format profile : [email protected]
Format settings : CABAC / 4 Ref Frames
Format settings, CABAC : Yes
Format settings, ReFrames : 4 frames
Codec ID : V_MPEG4/ISO/AVC
Duration : 1 h 58 min
Bit rate : 900 kb/s
Width : 1 280 pixels
Height : 534 pixels
Display aspect ratio : 2.40:1
Original display aspect ratio : 2.40:1
Frame rate mode : Constant
Frame rate : 24.000 FPS
Color space : YUV
Chroma subsampling : 4:2:0
Bit depth : 8 bits
Scan type : Progressive
Bits/(Pixel*Frame) : 0.055
Stream size : 742 MiB (68%)
Writing library : x264 core 148
Language : Chinese
Default : Yes
Forced : No

Audio
ID : 2
Format : AC-3
Format/Info : Audio Coding 3
Commercial name : Dolby Digital
Codec ID : A_AC3
Duration : 1 h 58 min
Bit rate mode : Constant
Bit rate : 384 kb/s
Channel(s) : 2 channels
Channel layout : L R
Sampling rate : 48.0 kHz
Frame rate : 31.250 FPS (1536 SPF)
Bit depth : 16 bits
Compression mode : Lossy
Stream size : 325 MiB (30%)
Language : Hindi
Service kind : Complete Main
Default : Yes
Forced : Yes

Text
ID : 3
Format : UTF-8
Codec ID : S_TEXT/UTF8
Codec ID/Info : UTF-8 Plain Text
Language : English
Default : Yes
Forced : Yes

Screen Shoot

Discussion

Comments 0

Post Your Comment

Files in this torrent

FILENAMESIZE
Shock Wave (2017) 720p Hindi Dubbed (DD 2.0) HDRip x264 AC3 ESub by Full4movies.mkv1.1 GB

Alternative Torrents for 'Shock Wave Hindi Dubbed DD ESub by Fullmovies'.

There are no alternative torrents found.