Comedy Club Дайджест Hip-hop(04-08-2017) WEB-DLRip By OlLanDGroup

Torrent Details


Comedy Club  Дайджест  Hip-hop(04-08-2017) WEB-DLRip by<span style=color:#fc9c6d> OlLanDGroup</span>

NAME
Comedy Club Дайджест Hip-hop(04-08-2017) WEB-DLRip by OlLanDGroup.torrent
CATEGORY
Television
INFOHASH
4562f86e04b683f77d04ecc5e48af09bac1f8622
SIZE
617 MB in 0 files
ADDED
Uploaded on 26-03-2019 by our crawler pet called "Spidey".
SWARM
0 seeders & 0 peers
RATING
No votes yet.

Please login to vote for this torrent.


Description

Информация о фильме

Оригинальное название: Comedy Club. Дайджест. Hip-hop

Жанр: Юмористическое шоу

Дата выхода в эфир: 04.08.2017

Режиссер: Гарик Мартиросян

Ведущие: Гарик Харламов, Павел Воля

В ролях: Сергей Светлаков, Семен Слепаков, Группа USB - United Sexy Boys, Сергей Гореликов, Павел Воля, Тимур Батрутдинов, Виктор Васильев и Дмитрий Хрусталев, Дуэт «Рома и Леша», Зураб Матуа, Андрей Аверин, Дмитрий «Люсёк» Сорокин, Александр Незлобин и Элвис



Описание: «Comedy Club» был создан в 2005 году командой КВН «Новые армяне», в состав которой входили Артур Джанибекян, Артак Гаспарян, Артур Тумасян, Арташес Саркисян, Гарик Мартиросян и другие. Его идея была задумана ещё в 2001 году, когда Арташес Саркисян, побывав в США, увидел местный «Comedy Club». Временами стали появляться новые участники «Comedy Club», в основном из КВН. 23 апреля 2005 года «Comedy Club» впервые вышел в эфир телеканала ТНТ. Рейтинги программы стали бить все рекорды и это приносило программе большие доходы, на которые они стали делать другие проекты. Впоследствии они создали свою продюсерскую компанию «Comedy Club Production». 15 апреля 2007 года на ТНТ был показан сотый выпуск программы. Регулярно выходят новые выпуски и другие проекты - например спецвыпуски на Первом канале, юмористические фестивали и продюсирование участниками «Comedy Club» проекты других телепередач. 23 апреля 2010 года «Comedy Club» вышло с новой музыкой и обновлённым оформлением. Также «Comedy Club» выходит на каналах ICTV, НТВ+ - Мир и Comedy TV. Как всегда, Comedy Club собрал все самое смешное, чтобы оставаться самым крутым юмористическим шоу на телевидении. Камеры готовы? Музыканты готовы? Зрители готовы? Поехали!







Выпущено: ТНТ, "Comedy Club Production"

Продолжительность: 00:45:22

Язык: Русский



Файл

Кодек: XviD

Качество: WEB-DLRip

Видео: XviD, 1700 Кбит/с, 704x400

Аудио: AC3, 2 ch, 192 Кбит/с







Инфо файлОбщее

Полное имя : D:ВидеоComedy Club. Дайджест. Hip-hop(04.08.2017) WEB-DLRip by OlLanDGroup.avi

Формат : AVI

Формат/Информация : Audio Video Interleave

Размер файла : 617 Мбайт

Продолжительность : 45 м.

Общий поток : 1901 Кбит/сек

Программа кодирования : VirtualDubMod 1.5.10.3 | www.virtualdub-fr.org || (build 2550/release)

Библиотека кодирования : VirtualDubMod build 2550/release



Видео

Идентификатор : 0

Формат : MPEG-4 Visual

Профиль формата : Advanced [email protected]

Параметр BVOP формата : 2

Параметр QPel формата : Нет

Параметр GMC формата : Без точки перехода

Параметр матрицы формата : Выборочная

Идентификатор кодека : XVID

Идентификатор кодека/Подсказка : XviD

Продолжительность : 45 м.

Битрейт : 1699 Кбит/сек

Ширина : 704 пикселя

Высота : 400 пикселей

Соотношение сторон : 16:9

Частота кадров : 25,000 кадров/сек

Цветовое пространство : YUV

Субдискретизация насыщенности : 4:2:0

Битовая глубина : 8 бит

Тип развёртки : Прогрессивная

Метод сжатия : С потерями

Бит/(Пиксели*Кадры) : 0.241

Размер потока : 551 Мбайт (89%)

Библиотека кодирования : XviD 73



Аудио

Идентификатор : 1

Формат : AC-3

Формат/Информация : Audio Coding 3

Расширение режима : CM (complete main)

Параметр Endianness формата : Big

Идентификатор кодека : 2000

Продолжительность : 45 м.

Вид битрейта : Постоянный

Битрейт : 192 Кбит/сек

Каналы : 2 канала

Расположение каналов : Front: L R

Частота : 48,0 КГц

Битовая глубина : 16 бит

Метод сжатия : С потерями

Размер потока : 62,3 Мбайт (10%)

Выравнивание : Разделение по промежуткам

Продолжительность промежутка : 40 мс. (1,00 видеокадр)

Время предзагрузки промежутка : 500 мс.













Релиз от:

Discussion

Comments 0

Post Your Comment

Torrent Files (Unavailable)

Please check back later to get a list of all files included in this torrent.

Alternative Torrents for 'Comedy Club Дайджест Hiphop DLRip by'.

There are no alternative torrents found.