2 Guns 2013 X264 720p Esub BluRay Dual Audio English Hindi GOPISAHI

Torrent Details

2 Guns 2013 x264 720p Esub BluRay Dual Audio English Hindi GOPISAHI

NAME
2 Guns 2013 x264 720p Esub BluRay Dual Audio English Hindi GOPISAHI.torrent
CATEGORY
Movies
INFOHASH
862b1d17754200345e2a1553c0ec86ffecd88c92
SIZE
1008 MB in 1 file
ADDED
Uploaded on 08-04-2019 by our crawler pet called "Spidey".
SWARM
0 seeders & 0 peers
RATING
No votes yet.

Please login to vote for this torrent.


Description

https://www.gopisahi.pw/







2 Guns 2013 x264 720p Esub BluRay Dual Audio English Hindi GOPISAHI



Format                         : Matroska

Format version                 : Version 4 / Version 2

File size                      : 1 008 MiB

Duration                       : 1 h 49 min

Overall bit rate               : 1 288 kb/s

Movie name                     : 2 Guns 2013 GOPISAHI



Video

Format                         : AVC

Format/Info                    : Advanced Video Codec

Codec ID                       : V_MPEG4/ISO/AVC

Duration                       : 1 h 49 min

Bit rate                       : 899 kb/s

Width                          : 1 280 pixels

Height                         : 534 pixels

Display aspect ratio           : 2.40:1

Frame rate mode                : Constant

Frame rate                     : 23.976 (24000/1001) FPS

Color space                    : YUV

Chroma subsampling             : 4:2:0

Bit depth                      : 8 bits

Scan type                      : Progressive

Bits/(Pixel*Frame)             : 0.055

Stream size                    : 702 MiB (70%)

Title                          : GOPISAHI

Writing library                : x264 core 157 r2935 545de2f



Audio #1

Format                         : AAC

Duration                       : 1 h 49 min

Bit rate                       : 96.0 kb/s

Channel(s)                     : 2 channels

Channel positions              : Front: L R

Sampling rate                  : 48.0 kHz

Frame rate                     : 46.875 FPS (1024 SPF)

Compression mode               : Lossy

Delay relative to video        : 11 s 663 ms

Stream size                    : 75.1 MiB (7%)

Title                          : GOPISAHI

Language                       : Hindi



Audio #2

Format                         : AAC

Duration                       : 1 h 49 min

Bit rate                       : 192 kb/s

Channel(s)                     : 6 channels

Channel positions              : Front: L C R, Side: C, Back: L R

Sampling rate                  : 48.0 kHz

Frame rate                     : 46.875 FPS (1024 SPF)

Compression mode               : Lossy

Delay relative to video        : -21 ms

Stream size                    : 150 MiB (15%)

Title                          : GOPISAHI

Language                       : English



Text #1

Format                         : PGS

Language                       : Hindi



Text #2

Format                         : PGS

Language                       : English



Text #3

Format                         : PGS

Language                       : English



Text #4

Format                         : PGS

Language                       : Tamil



Text #5

Format                         : PGS

Language                       : Telugu





Menu

00:00:00.000                   : en:Chapter 1

00:05:47.388                   : en:Chapter 2

00:12:12.398                   : en:Chapter 3

00:17:21.540                   : en:Chapter 4

00:23:30.867                   : en:Chapter 5

00:29:32.270                   : en:Chapter 6

00:36:35.484                   : en:Chapter 7

00:41:07.756                   : en:Chapter 8

00:47:33.809                   : en:Chapter 9

00:52:28.436                   : en:Chapter 10

00:58:25.168                   : en:Chapter 11

01:06:01.415                   : en:Chapter 12

01:11:38.002                   : en:Chapter 13

01:15:57.970                   : en:Chapter 14

01:24:58.301                   : en:Chapter 15

01:31:23.436                   : en:Chapter 16















Discussion

Comments 0

Post Your Comment

Files in this torrent

FILENAMESIZE
2 Guns 2013 x264 720p Esub BluRay Dual Audio English Hindi GOPISAHI.mkv1008.3 MB

Alternative Torrents for 'Guns Esub BluRay Dual Audio English Hindi GOPISAHI'.

TORRENT NAMEADDEDSIZESEEDSPEERSHEALTH
4/8/20191008 MB00
9/25/2018919 MB00