Warning! Do NOT Download Without a VPN!
Your IP Address is .   Location is United States
Your Internet Provider and Government can track your download activities! Hide your IP ADDRESS with a VPN!
We strongly recommend using a VPN service to anonymize your torrent downloads. It's FREE!
START YOUR FREE TRIAL NOW!

Escape Room 2019 BDRip 1080p SeleZen

Torrent Details

Escape Room 2019 BDRip 1080p seleZen

NAME
Escape Room 2019 BDRip 1080p seleZen.torrent
CATEGORY
Movies
INFOHASH
f17d8161e7a7d819615540edcccb142d68ccd9a0
SIZE
8 GB in 1 file
ADDED
Uploaded on 15-04-2019 by our crawler pet called "Spidey".
SWARM
0 seeders & 0 peers
RATING
No votes yet.

Please login to vote for this torrent.


Description

Информация о фильме

Название: Клаустрофобы

Оригинальное название: Escape Room

Год выхода: 2019

Жанр: Триллер

Режиссер: Адам Робител

В ролях: Тейлор Расселл, Логан Миллер, Джей Эллис, Тайлер Лабин, Дебора Энн Уолл, Ник Додани, Йорик ван Вагенинген, Корнелиус Джини мл., Рассел Кроус, Барт Фаш







О фильме: Получив от таинственной организации приглашение сыграть в квест, победитель которого получит солидную сумму, шестеро незнакомых между собой людей решают попытать удачу. Но совсем скоро им становится понятно, что их выбрали для игры не случайно, задания не такие безобидные, и им грозит вполне реальная опасность, а ставка в игре - их собственные жизни.



Страна: ЮАР, США

Студия: Original Film

Продолжительность: 01:39:37

Перевод: Дублированный | iTunes



Качество: BDRip 1080p

Видео: MPEG-4 AVC, 1920x804, 9661 Kbit/s, 23.976 fps

Звук:

Аудио #01: 48 kHz, AC3, 5.1, 384 Kbps | iTunes | RUS |

Аудио #02: 48 kHz, DTS, 5.1, 1510 Kbps | Оригинал | ENG |

Субтитры: Русские (Forced, full), английские







MIGeneral

Unique ID : 322980852764686406374992974998817491926 (0xF2FBD97E18988B2C5ECA825487344BD6)

Complete name : D:Video111Escape.Room.2019.BDRip.1080p.seleZen.mkv

Format : Matroska

Format version : Version 4

File size : 8.04 GiB

Duration : 1 h 39 min

Overall bit rate : 11.6 Mb/s

Movie name : Escape Room 2019 from селезень

Encoded date : UTC 2019-04-12 09:00:05

Writing application : mkvmerge v32.0.0 ('Astral Progressions') 64-bit

Writing library : libebml v1.3.7 + libmatroska v1.5.0



Video

ID : 1

Format : AVC

Format/Info : Advanced Video Codec

Format profile : High@L4.1

Format settings : CABAC / 4 Ref Frames

Format settings, CABAC : Yes

Format settings, ReFrames : 4 frames

Codec ID : V_MPEG4/ISO/AVC

Duration : 1 h 39 min

Bit rate : 9 661 kb/s

Width : 1 920 pixels

Height : 804 pixels

Display aspect ratio : 2.40:1

Frame rate mode : Constant

Frame rate : 23.976 (24000/1001) FPS

Color space : YUV

Chroma subsampling : 4:2:0

Bit depth : 8 bits

Scan type : Progressive

Bits/(Pixel*Frame) : 0.261

Stream size : 6.72 GiB (84%)

Title : CHD

Writing library : x264 core 157 r2867+150 7e91e0e t_mod_Custom_2 [8-bit@all X86_64]

Encoding settings : cabac=1 / ref=4 / deblock=1:-3:-3 / analyse=0x3:0x133 / me=umh / subme=10 / psy=1 / fade_compensate=0.00 / psy_rd=0.95:0.10 / mixed_ref=1 / me_range=48 / chroma_me=1 / trellis=2 / 8x8dct=1 / cqm=0 / deadzone=21,11 / fast_pskip=0 / chroma_qp_offset=-4 / threads=18 / lookahead_threads=3 / sliced_threads=0 / nr=0 / decimate=1 / interlaced=0 / bluray_compat=0 / constrained_intra=0 / fgo=0 / bframes=8 / b_pyramid=2 / b_adapt=2 / b_bias=0 / direct=3 / weightb=1 / open_gop=0 / weightp=2 / keyint=250 / keyint_min=23 / scenecut=40 / intra_refresh=0 / rc_lookahead=60 / rc=crf / mbtree=0 / crf=20.0000 / qcomp=0.70 / qpmin=0:0:0 / qpmax=69:69:69 / qpstep=4 / vbv_maxrate=35000 / vbv_bufsize=35000 / crf_max=0.0 / nal_hrd=none / filler=0 / ip_ratio=1.40 / pb_ratio=1.30 / aq=3:1.00 / aq-sensitivity=10.00 / aq-factor=1.00:1.00:1.00 / aq2=0 / aq3=2:[0.50:0.50]:[0.50:0.50]:[0.50:0.50]:[0.50:0.50] / aq3-sensitivity=10.00 / aq3-factor=[1.00:1.00]:[1.00:1.00]:[1.00:1.00] / aq3-boundary=192:64:24

Language : English

Default : Yes

Forced : No



Audio #1

ID : 2

Format : AC-3

Format/Info : Audio Coding 3

Commercial name : Dolby Digital

Codec ID : A_AC3

Duration : 1 h 39 min

Bit rate mode : Constant

Bit rate : 384 kb/s

Channel(s) : 6 channels

Channel layout : L R C LFE Ls Rs

Sampling rate : 48.0 kHz

Frame rate : 31.250 FPS (1536 SPF)

Bit depth : 16 bits

Compression mode : Lossy

Stream size : 274 MiB (3%)

Title : iTunes

Language : Russian

Service kind : Complete Main

Default : Yes

Forced : Yes



Audio #2

ID : 3

Format : DTS

Format/Info : Digital Theater Systems

Codec ID : A_DTS

Duration : 1 h 39 min

Bit rate mode : Constant

Bit rate : 1 509 kb/s

Channel(s) : 6 channels

Channel layout : C L R Ls Rs LFE

Sampling rate : 48.0 kHz

Frame rate : 93.750 FPS (512 SPF)

Bit depth : 24 bits

Compression mode : Lossy

Stream size : 1.05 GiB (13%)

Title : Original

Language : English

Default : No

Forced : No



Text #1

ID : 4

Format : UTF-8

Codec ID : S_TEXT/UTF8

Codec ID/Info : UTF-8 Plain Text

Duration : 1 h 34 min

Bit rate : 0 b/s

Count of elements : 5

Stream size : 178 Bytes (0%)

Title : Forced

Language : Russian

Default : Yes

Forced : Yes



Text #2

ID : 5

Format : UTF-8

Codec ID : S_TEXT/UTF8

Codec ID/Info : UTF-8 Plain Text

Duration : 1 h 38 min

Bit rate : 93 b/s

Count of elements : 1356

Stream size : 67.7 KiB (0%)

Title : Full

Language : Russian

Default : No

Forced : No



Text #3

ID : 6

Format : UTF-8

Codec ID : S_TEXT/UTF8

Codec ID/Info : UTF-8 Plain Text

Duration : 1 h 33 min

Bit rate : 70 b/s

Count of elements : 1553

Stream size : 48.6 KiB (0%)

Title : Full

Language : English

Default : No

Forced : No



Text #4

ID : 7

Format : UTF-8

Codec ID : S_TEXT/UTF8

Codec ID/Info : UTF-8 Plain Text

Duration : 1 h 37 min

Bit rate : 72 b/s

Count of elements : 1764

Stream size : 51.7 KiB (0%)

Title : SDH

Language : English

Default : No

Forced : No



Menu

00:00:00.000 : en:00:00:00.000

00:04:36.026 : en:00:04:36.026

00:09:25.648 : en:00:09:25.648

00:14:08.765 : en:00:14:08.765

00:19:46.102 : en:00:19:46.102

00:25:55.220 : en:00:25:55.220

00:33:08.945 : en:00:33:08.945

00:37:27.162 : en:00:37:27.162

00:43:05.082 : en:00:43:05.082

00:50:06.170 : en:00:50:06.170

00:53:58.569 : en:00:53:58.569

01:03:15.291 : en:01:03:15.291

01:09:07.894 : en:01:09:07.894

01:16:14.695 : en:01:16:14.695

01:22:48.755 : en:01:22:48.755

01:30:27.881 : en:01:30:27.881



Релиз от:



Discussion

Comments 0

Post Your Comment

Files in this torrent

FILENAMESIZE
Escape.Room.2019.BDRip.1080p.seleZen.mkv8 GB

Alternative Torrents for 'Escape Room BDRip seleZen'.

There are no alternative torrents found.