Warning! Do NOT Download Without a VPN!
Your IP Address is .   Location is United States
Your Internet Provider and Government can track your download activities! Hide your IP ADDRESS with a VPN!
We strongly recommend using a VPN service to anonymize your torrent downloads. It's FREE!
START YOUR FREE TRIAL NOW!

How To Train Your Dragon 3 2019 X264 BDRip (AVC) OlLanDGroup

Torrent Details

How to Train Your Dragon 3 2019 x264 BDRip (AVC) OlLanDGroup

NAME
How to Train Your Dragon 3 2019 x264 BDRip (AVC) OlLanDGroup.torrent
CATEGORY
Anime
INFOHASH
68334ffb77a63be41504d57d0a4837a57369e7cf
SIZE
2.1 GB in 1 file
ADDED
Uploaded on 15-04-2019 by our crawler pet called "Spidey".
SWARM
166 seeders & 11 peers
RATING
No votes yet.

Please login to vote for this torrent.


Description

Информация о фильме





Название: Как приручить дракона 3

Оригинальное название: How to Train Your Dragon: The Hidden World

Год выпуска: 2019

Жанр: Мультфильм, фэнтези, боевик, комедия, приключения, семейный, полнометражный

Выпущено: США, DreamWorks Animation, Mad Hatter Entertainment

Режиссер: Дин ДеБлуа

В ролях: Кейт Бланшетт, Джерард Батлер, Джона Хилл, Кит Харингтон, Кристен Уиг, Джей Барушель, Кристофер Минц-Плассе, Америка Феррера, Оулавюр Дарри Оулафссон, Ф. Мюррэй Абрахам, Крэйг Фергюсон, Джастин Руппл







О фильме: Когда-то викинги жили в гармонии с драконами. В те времена они делили радость, горе… и последние штаны. Казалось, что так будет всегда, но появление загадочной Дневной Фурии изменило жизнь острова. И теперь Иккинг и Беззубик столкнутся с безжалостным охотником на драконов, жаждущим уничтожить все, что им дорого.











Качество: WEB-DLRip (AVC)

Видео: MPEG-4 AVC, 2168 Kбит/с, 1024x436, 23.976 кадр/с

Аудио: Русский (AC3, 2 ch, 192 Кбит/с), английский (AC3, 6 ch, 384 Кбит/с)

Размер: 2.00 ГБ

Продолжительность: 01:44:26

Перевод: Профессиональный многоголосый

Субтитры: Английские





Озвучивание - Профессиональное многоголосое (HDRezka Studio)

Сохранены оригинальные чаптеры.





x264

x264 [info]: frame I:1080 Avg QP:13.41 size: 62522

x264 [info]: frame P:43530 Avg QP:16.73 size: 21164

x264 [info]: frame B:105626 Avg QP:18.79 size: 6702

x264 [info]: consecutive B-frames: 3.8% 6.0% 12.2% 68.5% 4.8% 3.8% 0.2% 0.2% 0.0% 0.3% 0.1%

x264 [info]: mb I I16..4: 8.9% 65.2% 25.9%

x264 [info]: mb P I16..4: 1.3% 14.0% 2.8% P16..4: 28.6% 32.5% 11.7% 2.3% 0.3% skip: 6.4%

x264 [info]: mb B I16..4: 0.2% 1.9% 0.5% B16..8: 30.3% 21.0% 3.8% direct: 5.3% skip:36.9% L0:37.9% L1:45.6% BI:16.4%

x264 [info]: 8x8 transform intra:75.1% inter:50.8%

x264 [info]: direct mvs spatial:93.4% temporal:6.6%

x264 [info]: coded y,uvDC,uvAC intra: 82.0% 85.5% 66.8% inter: 22.0% 21.1% 11.8%

x264 [info]: i16 v,h,dc,p: 15% 10% 6% 69%

x264 [info]: i8 v,h,dc,ddl,ddr,vr,hd,vl,hu: 11% 9% 8% 9% 12% 11% 13% 12% 16%

x264 [info]: i4 v,h,dc,ddl,ddr,vr,hd,vl,hu: 31% 7% 7% 7% 11% 10% 10% 8% 10%

x264 [info]: i8c dc,h,v,p: 37% 27% 18% 17%

x264 [info]: Weighted P-Frames: Y:5.7% UV:3.2%

x264 [info]: ref P L0: 54.5% 8.5% 15.5% 5.6% 4.1% 3.0% 2.7% 2.3% 1.9% 1.5% 0.3% 0.0%

x264 [info]: ref B L0: 82.3% 8.6% 3.3% 1.6% 1.1% 0.9% 0.8% 1.0% 0.4%

x264 [info]: ref B L1: 96.1% 3.9%

x264 [info]: kb/s:2166.10





Инфо-файл

Общее

Уникальный идентификатор : 174935076732219053729620780748672962563 (0x839B452FC62FDB1084AEF1BD25F19003)

Полное имя : D:ЗагрузкиHow.to.Train.Your.Dragon.3.2019.x264.WEB-DLRip.(AVC).OlLanDGroup.mkv

Формат : Matroska

Версия формата : Version 4 / Version 2

Размер файла : 2,00 Гбайт

Продолжительность : 1 ч. 44 м.

Общий поток : 2743 Кбит/сек

Название фильма : Как приручить дракона 3.2019.Rip by: ollan

Дата кодирования : UTC 2019-04-03 18:25:03

Программа кодирования : mkvmerge v6.5.0 ('Isn't she lovely') built on Oct 20 2013 12:50:05

Библиотека кодирования : libebml v1.3.0 + libmatroska v1.4.1

Обложка : Yes

Attachments : Cover - How.To.Train.Your.Dragon.3.png



Видео

Идентификатор : 1

Формат : AVC

Формат/Информация : Advanced Video Codec

Профиль формата : High@L4.1

Настройки формата : CABAC / 10 Ref Frames

Параметр CABAC формата : Да

Параметр ReFrames формата : 10 кадров

Идентификатор кодека : V_MPEG4/ISO/AVC

Продолжительность : 1 ч. 44 м.

Битрейт : 2168 Кбит/сек

Ширина : 1024 пикселя

Высота : 436 пикселей

Соотношение сторон : 2,35:1

Режим частоты кадров : Постоянный

Частота кадров : 23,976 (24000/1001) кадра/сек

Цветовое пространство : YUV

Субдискретизация насыщенности : 4:2:0

Битовая глубина : 8 бит

Тип развёртки : Прогрессивная

Бит/(Пиксели*Кадры) : 0.203

Размер потока : 1,54 Гбайт (77%)

Библиотека кодирования : x264 core 146 r2538 121396c

Настройки программы : cabac=1 / ref=10 / deblock=1:-3:-3 / analyse=0x3:0x133 / me=umh / subme=11 / psy=1 / psy_rd=0.95:0.05 / mixed_ref=1 / me_range=64 / chroma_me=1 / trellis=2 / 8x8dct=1 / cqm=0 / deadzone=21,11 / fast_pskip=0 / chroma_qp_offset=-3 / threads=12 / lookahead_threads=3 / sliced_threads=0 / nr=0 / decimate=0 / interlaced=0 / bluray_compat=0 / constrained_intra=0 / bframes=10 / b_pyramid=2 / b_adapt=2 / b_bias=0 / direct=3 / weightb=1 / open_gop=0 / weightp=2 / keyint=240 / keyint_min=23 / scenecut=40 / intra_refresh=0 / rc_lookahead=40 / rc=2pass / mbtree=0 / bitrate=2168 / ratetol=1.0 / qcomp=0.60 / qpmin=0 / qpmax=69 / qpstep=4 / cplxblur=20.0 / qblur=0.5 / vbv_maxrate=50000 / vbv_bufsize=62500 / nal_hrd=none / filler=0 / ip_ratio=1.40 / pb_ratio=1.30 / aq=1:1.00

Язык : English

Default : Да

Forced : Нет



Аудио #1

Идентификатор : 2

Формат : AC-3

Формат/Информация : Audio Coding 3

Идентификатор кодека : A_AC3

Продолжительность : 1 ч. 44 м.

Вид битрейта : Постоянный

Битрейт : 192 Кбит/сек

Каналы : 2 канала

Расположение каналов : Front: L R

Частота : 48,0 КГц

Частота кадров : 31,250 кадров/сек (1536 SPF)

Битовая глубина : 16 бит

Метод сжатия : С потерями

Размер потока : 143 Мбайт (7%)

Заголовок : HDRezka Studio

Язык : Russian

Service kind : Complete Main

Default : Да

Forced : Нет



Аудио #2

Идентификатор : 3

Формат : AC-3

Формат/Информация : Audio Coding 3

Идентификатор кодека : A_AC3

Продолжительность : 1 ч. 44 м.

Вид битрейта : Постоянный

Битрейт : 384 Кбит/сек

Каналы : 6 каналов

Расположение каналов : Front: L C R, Side: L R, LFE

Частота : 48,0 КГц

Частота кадров : 31,250 кадров/сек (1536 SPF)

Битовая глубина : 16 бит

Метод сжатия : С потерями

Размер потока : 287 Мбайт (14%)

Язык : English

Service kind : Complete Main

Default : Нет

Forced : Нет



Текст

Идентификатор : 4

Формат : UTF-8

Идентификатор кодека : S_TEXT/UTF8

Идентификатор кодека/Информация : UTF-8 Plain Text

Заголовок : SDH

Язык : English

Default : Нет

Forced : Нет



Меню

00:00:00.000 : en:Chapter 01

00:05:14.522 : en:Chapter 02

00:10:27.835 : en:Chapter 03

00:14:53.225 : en:Chapter 04

00:20:34.065 : en:Chapter 05

00:24:39.684 : en:Chapter 06

00:28:41.884 : en:Chapter 07

00:31:11.115 : en:Chapter 08

00:37:36.125 : en:Chapter 09

00:44:39.548 : en:Chapter 10

00:47:54.575 : en:Chapter 11

00:53:12.017 : en:Chapter 12

00:57:37.281 : en:Chapter 13

01:01:26.050 : en:Chapter 14

01:08:56.916 : en:Chapter 15

01:14:18.695 : en:Chapter 16

01:19:32.133 : en:Chapter 17

01:23:24.281 : en:Chapter 18

01:28:25.707 : en:Chapter 19

01:33:54.368 : en:Chapter 20





Скриншоты











Релиз от: Rip by:

Discussion

Comments 0

Post Your Comment

Files in this torrent

FILENAMESIZE
How.to.Train.Your.Dragon.3.2019.x264.BDRip.(AVC).OlLanDGroup.mkv2.1 GB

Alternative Torrents for 'How to Train Your Dragon BDRip OlLanDGroup'.

There are no alternative torrents found.