Shingeki No Bahamut - Genesis TV [HDTVRip] [720p]

Torrent Details


Shingeki no Bahamut - Genesis TV [HDTVRip] [720p]

NAME
Shingeki no Bahamut - Genesis TV [HDTVRip] [720p].torrent
CATEGORY
Anime
INFOHASH
331971dedef1919fc7db52327b3235b1223f03d4
SIZE
7 GB in 12 files
ADDED
Uploaded on 17-04-2019 by our crawler pet called "Spidey".
SWARM
0 seeders & 0 peers
RATING
No votes yet.

Please login to vote for this torrent.


Description

Информация о фильме

Название: Ярость Бахамута: Истоки

Оригинальное название: Shingeki no Bahamut: Genesis

Год выхода: 2014

Жанр: приключения, фэнтези

Режиссер: Сато Кэйити

Художник: Накамура Хидэки

В ролях: Ёсино Хироюки, Иноэ Го, Симидзу Риса, Хирата Хироаки, Хан Мэгуми, Ивасаки Хироси, Морикубо Сётаро, Морита Масакадзу, Китамура Эри, Кояма Цуёси, Савасиро Миюки, Отомо Рюдзабуро, Фудзимура Аюми, Аой Сёта, Цудзи Аюми, Одзэки Эри, Гэнда Тэссё, Цуда Кэндзиро, Сакурай Такахиро

О фильме:

Когда-то давно боги, демоны и люди объединились, чтобы одолеть и запечатать огненного дракона Бахамута, угрожавшего самому бытию магического мира Мистарции. Ключ от узилища древнего зверя был разделен на две части – одну на хранение приняли боги, другую – демоны. Дальше союз распался, и каждая раса тысячи лет занималась своими делами, понемногу враждуя с другими, пока в один прекрасный день обладатели Силы не узнали, что ключ богов был украден. Как следствие, печать Бахамута зашаталась, и все в мире пришло в движение…

А вот Фаваро Леоне, молодой охотник за головами, весельчак, хвастун и бабник, не думал о судьбах мира. Вместо этого, вволю поиздевавшись над другом-соперником Кайсаром, Фаваро отмечал успешное дело, и тут судьба свела его с таинственной Амирой, которая очень убедительно попросила показать ей путь в далекий Хельхейм. Еще веселее парню стало, когда он узнал, что Амира – обладатель исчезнувшего ключа, и очень многие желают с ней тесно пообщаться. Ангелы и демоны, короли и живые святые, некроманты и вечно пьяный бог Бахус – все они и много кто еще ждут героев на пути к темнице дракона!

© Hollow, World Art





World Art | MAL



Страна: Япония

Студия: MAPPA

Продолжительность: 00:24:00

Язык: Русский, Японский

Перевод: Любительский (многоголосый, закадровый)



Файл

Качество: HDTVRip

Формат: MKV

Кодек: H.264

Аудио кодек: AAC

Видео: 1280x720, 23.976 fps, 2500 kbps

Аудио RUS: 48.0 kHz, AAC, 2 ch, 192 kbps - AniDub

Аудио RUS: 48.0 kHz, AAC, 2 ch, 192 kbps - SHIZA Project

Аудио JAP: 48.0 kHz, AAC, 2 ch, 192 kbps

Субтитры: русские (встроенные полный перевод, ASS) - AleX_MytH & Zottig



ОзвучкаРелиз от:

Озвучивание: BalFor, Ancord, Jam, Давид Петросян, Trina_D, 9й неизвестный, Гамлетка Цезаревна, Holly, Торгиль, Cuba77

Перевод: AleX_MytH & Zottig

Тайминг и работа со звуком: BalFor

Релиз от:

Озвучивание: Azazel, Shuuma (01-03), Karkazik (04-12), NesTea

Перевод: AleX_MytH & Zottig

Тайминг и работа со звуком: Gigantic Guyver

Скриншоты

Список серий01. Схватка в Уайеттэрпе

02. Побег из Ливиана

03. Туман Нэбельвилла

04. Воссоединение в Есменпорте

05. Спасение в Долине Мечей

06. Анате, часть 1: Легендарный Святой

07. Анате, часть 2: Буря свирепствует

08. Анате, часть 3: После бури

09. Решение в Воющем лесу

10. Хельхейм, земля обмана

11. Все дороги ведут в Абос

12. Ярость Бахамута

MediaInfoGeneral

Format : Matroska

Format version : Version 4 / Version 2

File size : 530 MiB

Duration : 23 min

Overall bit rate : 3 089 kb/s

Encoded date : UTC 2017-11-04 08:27:47

Writing application : mkvmerge v8.3.0 ('Over the Horizon') 64bit

Writing library : libebml v1.3.1 + libmatroska v1.4.2



Video

ID : 1

Format : AVC

Format/Info : Advanced Video Codec

Format profile : [email protected]

Format settings, CABAC : Yes

Format settings, ReFrames : 4 frames

Codec ID : V_MPEG4/ISO/AVC

Duration : 23 min

Bit rate : 2 539 kb/s

Width : 1 280 pixels

Height : 720 pixels

Display aspect ratio : 16:9

Frame rate mode : Constant

Frame rate : 23.976 (24000/1001) FPS

Color space : YUV

Chroma subsampling : 4:2:0

Bit depth : 8 bits

Scan type : Progressive

Bits/(Pixel*Frame) : 0.115

Stream size : 436 MiB (82%)

Writing library : x264 core 129 r2245+729M 1a52e03

Encoding settings : cabac=1 / ref=4 / deblock=1:1:-1 / analyse=0x3:0x113 / me=umh / subme=9 / psy=1 / fade_compensate=0.00 / psy_rd=1.00:0.00 / mixed_ref=1 / me_range=24 / chroma_me=1 / trellis=2 / 8x8dct=1 / cqm=0 / deadzone=21,11 / fast_pskip=1 / chroma_qp_offset=-2 / threads=8 / lookahead_threads=1 / sliced_threads=0 / nr=0 / decimate=1 / interlaced=0 / bluray_compat=0 / constrained_intra=0 / fgo=0 / bframes=9 / b_pyramid=2 / b_adapt=2 / b_bias=0 / direct=1 / weightb=1 / open_gop=0 / weightp=2 / keyint=240 / keyint_min=24 / scenecut=40 / intra_refresh=0 / rc=crf / mbtree=0 / crf=18.0 / qcomp=0.72 / qpmin=0 / qpmax=69 / qpstep=4 / ip_ratio=1.40 / pb_ratio=1.30 / aq=1:0.85

Language : Japanese

Default : Yes

Forced : No

Color range : Limited

Color primaries : BT.709

Transfer characteristics : BT.709

Matrix coefficients : BT.709



Audio #1

ID : 2

Format : AAC

Format/Info : Advanced Audio Codec

Format profile : LC

Codec ID : A_AAC

Duration : 23 min

Bit rate : 162 kb/s

Channel(s) : 2 channels

Channel positions : Front: L R

Sampling rate : 48.0 kHz

Frame rate : 46.875 FPS (1024 spf)

Compression mode : Lossy

Stream size : 27.9 MiB (5%)

Title : AniDub

Language : Russian

Default : Yes

Forced : No



Audio #2

ID : 3

Format : AAC

Format/Info : Advanced Audio Codec

Format profile : LC

Codec ID : A_AAC

Duration : 23 min

Bit rate : 192 kb/s

Channel(s) : 2 channels

Channel positions : Front: L R

Sampling rate : 48.0 kHz

Frame rate : 46.875 FPS (1024 spf)

Compression mode : Lossy

Stream size : 33.0 MiB (6%)

Title : SHIZA Project

Language : Russian

Default : No

Forced : No



Audio #3

ID : 4

Format : AAC

Format/Info : Advanced Audio Codec

Format profile : LC

Codec ID : A_AAC

Duration : 23 min

Bit rate : 192 kb/s

Channel(s) : 2 channels

Channel positions : Front: L R

Sampling rate : 48.0 kHz

Frame rate : 46.875 FPS (1024 spf)

Compression mode : Lossy

Stream size : 32.9 MiB (6%)

Title : Original

Language : Japanese

Default : No

Forced : No



Text

ID : 5

Format : ASS

Codec ID : S_TEXT/ASS

Codec ID/Info : Advanced Sub Station Alpha

Duration : 23 min

Bit rate : 115 b/s

Count of elements : 282

Compression mode : Lossless

Stream size : 20.1 KiB (0%)

Title : Полные субтитры

Language : Russian

Default : Yes

Forced : No

Discussion

Comments 0

Post Your Comment

Files in this torrent

FILENAMESIZE
Shingeki no Bahamut - Genesis TV [01].mkv530.2 MB
Shingeki no Bahamut - Genesis TV [02].mkv550.6 MB
Shingeki no Bahamut - Genesis TV [03].mkv560 MB
Shingeki no Bahamut - Genesis TV [04].mkv565.7 MB
Shingeki no Bahamut - Genesis TV [05].mkv644.1 MB
Shingeki no Bahamut - Genesis TV [06].mkv571.2 MB
Shingeki no Bahamut - Genesis TV [07].mkv581.7 MB
Shingeki no Bahamut - Genesis TV [08].mkv554.7 MB
Shingeki no Bahamut - Genesis TV [09].mkv581.5 MB
Shingeki no Bahamut - Genesis TV [10].mkv664.1 MB
Shingeki no Bahamut - Genesis TV [11].mkv772.7 MB
Shingeki no Bahamut - Genesis TV [12].mkv630.3 MB

Alternative Torrents for 'Shingeki no Bahamut Genesis TV HDTVRip'.

TORRENT NAMEADDEDSIZESEEDSPEERSHEALTH
4/17/20197 GB00