Fiza (2000) Hindi 1080p Untouched WebHD AVC DDP 5.1 ESuBS By-DusIcTv

Torrent Details

Fiza <span style=color:#777>(2000)</span> Hindi 1080p Untouched WebHD AVC DDP 5.1  ESuBS By-DusIcTvFiza <span style=color:#777>(2000)</span> Hindi 1080p Untouched WebHD AVC DDP 5.1  ESuBS By-DusIcTv

NAME
Fiza (2000) Hindi 1080p Untouched WebHD AVC DDP 5.1 ESuBS By-DusIcTv.torrent
CATEGORY
Music
INFOHASH
406d25b7393d7fd14efc539a46f7e90c17e7725d
SIZE
1.1 GB in 5 files
ADDED
Uploaded on 19-04-2019 by our crawler pet called "Spidey".
SWARM
0 seeders & 0 peers
RATING
No votes yet.

Please login to vote for this torrent.


Description







Fiza (2000) Hindi 1080p Untouched WebHD AVC DDP 5.1 {Music Video} ESuBS By-DusIcTv



Media info

General

Format                                   : Matroska

Format version                           : Version 4

File size                                : 1.08 GB

Overall bit rate mode                    : Variable

Overall bit rate                         : 5 715 kb/s

Encoded date                             : UTC 2019-03-13 07:31:37 / UTC 2018-06-20 13:23:05

Writing application                      : mkvmerge v26.0.0 ('In The Game') 64-bit

Writing library                          : libebml v1.3.6 + libmatroska v1.4.9 / Lavf58.0.0



Video

ID                                       : 1

Format                                   : AVC

Format/Info                              : Advanced Video Codec

Format profile                           : [email protected]

Format settings                          : CABAC / 3 Ref Frames

Format settings, CABAC                   : Yes

Format settings, RefFrames               : 3 frames

Codec ID                                 : V_MPEG4/ISO/AVC

Bit rate mode                            : Variable

Bit rate                                 : 4 961 kb/s

Maximum bit rate                         : 8 040 kb/s

Width                                    : 1 920 pixels

Height                                   : 1 080 pixels

Display aspect ratio                     : 16:9

Frame rate mode                          : Constant

Frame rate                               : 25.000 FPS

Color space                              : YUV

Chroma subsampling                       : 4:2:0

Bit depth                                : 8 bits

Scan type                                : Progressive

Bits/(Pixel*Frame)                       : 0.096

Stream size                              : 222 MiB (87%)

Default                                  : Yes

Forced                                   : No



Audio

ID                                       : 2

Format                                   : E-AC-3

Format/Info                              : Enhanced AC-3

Commercial name                          : Dolby Digital Plus

Codec ID                                 : A_EAC3

Duration                                 : 6 min 16 s

Bit rate mode                            : Constant

Bit rate                                 : 640 kb/s

Channel(s)                               : 6 channels

Channel layout                           : L R C LFE Ls Rs

Sampling rate                            : 48.0 kHz

Frame rate                               : 31.250 FPS (1536 SPF)

Compression mode                         : Lossy

Stream size                              : 28.7 MiB (11%)

Service kind                             : Complete Main

Default                                  : Yes

Forced                                   : No



Text

ID                                       : 3

Format                                   : UTF-8

Codec ID                                 : S_TEXT/UTF8

Codec ID/Info                            : UTF-8 Plain Text

Title                                    : English

Language                                 : English

Default                                  : Yes

Forced                                   : Yes





|Note-----------------------------> We have https://bwt.pw/index.php



ScreenShot





This Movie Songs Rip By @Special26





==========================================================

Note: We have moved to ---->> https://bwt.pw/index.php 

==========================================================



Request here for the song of any movie  https://bwt.pw/mailbox.php?compose&id=5







Don't Forget To Give Comments And Thanks...

Discussion

Comments 0

Post Your Comment

Files in this torrent

FILENAMESIZE
01.Aaja Mahiya.mkv256.2 MB
02.Mehboob Mere.mkv245 MB
03.Aankh Milaoongi.mkv234.5 MB
04.Tu Fiza Hai.mkv169.7 MB
05.Na Leke Jao.mkv208.2 MB

Alternative Torrents for 'Fiza Hindi Untouched WebHD AVC DDP ESuBS ByDusIcTv'.

There are no alternative torrents found.