Hamara Dil Aapke Paas Hai (2000) Hindi 1080p Untouched WebHD AVC DD Plus 2 0 ESuBS By-DusIcTv

Torrent Details

Hamara Dil Aapke Paas Hai <span style=color:#777>(2000)</span>  Hindi 1080p Untouched WebHD AVC DD Plus 2 0  ESuBS By-DusIcTvHamara Dil Aapke Paas Hai <span style=color:#777>(2000)</span>  Hindi 1080p Untouched WebHD AVC DD Plus 2 0  ESuBS By-DusIcTv

NAME
Hamara Dil Aapke Paas Hai (2000) Hindi 1080p Untouched WebHD AVC DD Plus 2 0 ESuBS By-DusIcTv.torrent
CATEGORY
Music
INFOHASH
89414dae97d08328be432c77b87e3e33cd23ed39
SIZE
1.3 GB in 5 files
ADDED
Uploaded on 20-04-2019 by our crawler pet called "Spidey".
SWARM
0 seeders & 1 peers
RATING
No votes yet.

Please login to vote for this torrent.


Description







Hamara Dil Aapke Paas Hai (2000)  Hindi 1080p Untouched WebHD AVC DD Plus 2.0 {Music Video} ESuBS By-DusIcTv [BWTorrents-BWT]



Media info

General

Format                                   : Matroska

Format version                           : Version 4

File size                                : 1.34 GB

Overall bit rate mode                    : Variable

Overall bit rate                         : 7 701 kb/s

Encoded date                             : UTC 2019-03-30 16:28:50 / UTC 2017-11-15 03:25:59

Writing application                      : mkvmerge v32.0.0 ('Astral Progressions') 32-bit

Writing library                          : libebml v1.3.7 + libmatroska v1.5.0 / Lavf58.0.0



Video

ID                                       : 1

Format                                   : AVC

Format/Info                              : Advanced Video Codec

Format profile                           : [email protected]

Format settings                          : CABAC / 3 Ref Frames

Format settings, CABAC                   : Yes

Format settings, RefFrames               : 3 frames

Codec ID                                 : V_MPEG4/ISO/AVC

Bit rate mode                            : Variable

Bit rate                                 : 7 419 kb/s

Maximum bit rate                         : 11.2 Mb/s

Width                                    : 1 920 pixels

Height                                   : 1 080 pixels

Display aspect ratio                     : 16:9

Frame rate mode                          : Constant

Frame rate                               : 25.000 FPS

Color space                              : YUV

Chroma subsampling                       : 4:2:0

Bit depth                                : 8 bits

Scan type                                : Progressive

Bits/(Pixel*Frame)                       : 0.143

Stream size                              : 295 MiB (96%)

Default                                  : Yes

Forced                                   : No



Audio

ID                                       : 2

Format                                   : E-AC-3

Format/Info                              : Enhanced AC-3

Commercial name                          : Dolby Digital Plus

Codec ID                                 : A_EAC3

Bit rate mode                            : Constant

Bit rate                                 : 128 kb/s

Channel(s)                               : 2 channels

Channel layout                           : L R

Sampling rate                            : 48.0 kHz

Frame rate                               : 31.250 FPS (1536 SPF)

Compression mode                         : Lossy

Delay relative to video                  : 16 ms

Stream size                              : 5.10 MiB (2%)

Service kind                             : Complete Main

Default                                  : Yes

Forced                                   : No



Text

ID                                       : 3

Format                                   : UTF-8

Codec ID                                 : S_TEXT/UTF8

Codec ID/Info                            : UTF-8 Plain Text

Title                                    : English

Language                                 : English

Default                                  : Yes

Forced                                   : Yes





|Note-----------------------------> We have https://bwt.pw/index.php



ScreenShot





































This Movie Songs Rip By @Special26





==========================================================

Note: We have moved to ---->> https://bwt.pw/index.php 

==========================================================



Request here for the song of any movie  https://bwt.pw/mailbox.php?compose&id=5







Don't Forget To Give Comments And Thanks...

Discussion

Comments 0

Post Your Comment

Files in this torrent

FILENAMESIZE
01.Hamara Dil Aapke Paas Hai.mkv306.6 MB
02.Gham Hai Kyoon.mkv257.4 MB
03.It_s My Family.mkv242.7 MB
04.Shukriya Shukriya.mkv295.7 MB
05.I Love You.mkv277.5 MB

Alternative Torrents for 'Hamara Dil Aapke Paas Hai Hindi Untouched WebHD AVC DD Plus ESuBS ByDusIcTv'.

There are no alternative torrents found.