Kaho Naa Pyaar Hai (2000) Hindi 1080p Untouched WebHD AVC DD 5.1 ESuBS By-DusIcTv

Torrent Details

Kaho Naa    Pyaar Hai <span style=color:#777>(2000)</span> Hindi 1080p Untouched WebHD AVC DD 5.1  ESuBS By-DusIcTvKaho Naa    Pyaar Hai <span style=color:#777>(2000)</span> Hindi 1080p Untouched WebHD AVC DD 5.1  ESuBS By-DusIcTv

NAME
Kaho Naa Pyaar Hai (2000) Hindi 1080p Untouched WebHD AVC DD 5.1 ESuBS By-DusIcTv.torrent
CATEGORY
Music
INFOHASH
995be7b93a93237e4e4adbf5675422c67117d2e0
SIZE
2.7 GB in 6 files
ADDED
Uploaded on 21-04-2019 by our crawler pet called "Spidey".
SWARM
0 seeders & 2 peers
RATING
No votes yet.

Please login to vote for this torrent.


Description







Kaho Naa... Pyaar Hai (2000) Hindi 1080p Untouched WebHD AVC DD 5.1 {Music Video} ESuBS By-DusIcTv [BWTorrents-BWT]



Media info

General

Format                                   : Matroska

Format version                           : Version 2

File size                                : 2.74 GB

Overall bit rate                         : 11.6 Mb/s

Writing application                      : Lavf51.12.1

Writing library                          : Lavf51.12.1



Video

ID                                       : 1

Format                                   : AVC

Format/Info                              : Advanced Video Codec

Format profile                           : [email protected]

Format settings                          : CABAC / 2 Ref Frames

Format settings, CABAC                   : Yes

Format settings, RefFrames               : 2 frames

Format settings, GOP                     : M=1, N=13

Codec ID                                 : V_MPEG4/ISO/AVC

Bit rate                                 : 11.0 Mb/s

Width                                    : 1 920 pixels

Height                                   : 1 080 pixels

Display aspect ratio                     : 16:9

Frame rate mode                          : Constant

Frame rate                               : 25.000 FPS

Color space                              : YUV

Chroma subsampling                       : 4:2:0

Bit depth                                : 8 bits

Scan type                                : Progressive

Bits/(Pixel*Frame)                       : 0.213

Stream size                              : 460 MiB (95%)

Default                                  : Yes

Forced                                   : No



Audio

ID                                       : 2

Format                                   : AC-3

Format/Info                              : Audio Coding 3

Commercial name                          : Dolby Digital

Codec ID                                 : A_AC3

Bit rate mode                            : Constant

Bit rate                                 : 384 kb/s

Channel(s)                               : 6 channels

Channel layout                           : L R C LFE Ls Rs

Sampling rate                            : 48.0 kHz

Frame rate                               : 31.250 FPS (1536 SPF)

Bit depth                                : 16 bits

Compression mode                         : Lossy

Delay relative to video                  : 8 ms

Stream size                              : 16.0 MiB (3%)

Service kind                             : Complete Main

Default                                  : Yes

Forced                                   : No



|Note-----------------------------> We have https://bwt.pw/index.php



ScreenShot

























This Movie Songs Rip By @Special26





==========================================================

Note: We have moved to ---->> https://bwt.pw/index.php 

==========================================================



Request here for the song of any movie  https://bwt.pw/mailbox.php?compose&id=5







Don't Forget To Give Comments And Thanks...

Discussion

Comments 0

Post Your Comment

Files in this torrent

FILENAMESIZE
01.Kaho Naa Pyaar Hai.mkv485.9 MB
02.Pyaar Ki Khasti Mein.mkv453.1 MB
03.Chaand Sitare Phool Aur.mkv516.8 MB
04.Ek Pal Ka Jeena.mkv448.8 MB
05.Na Tum Jano Na Hum.mkv438.5 MB
06.Dil Ne Dil Ko Pukara.mkv470.3 MB

Alternative Torrents for 'Kaho Naa Pyaar Hai Hindi Untouched WebHD AVC DD ESuBS ByDusIcTv'.

There are no alternative torrents found.