Warning! Do NOT Download Without a VPN!
Your IP Address is .   Location is United States
Your Internet Provider and Government can track your download activities! Hide your IP ADDRESS with a VPN!
We strongly recommend using a VPN service to anonymize your torrent downloads. It's FREE!
START YOUR FREE TRIAL NOW!

Game Of Thrones S08 E02 English AMZN WEBRip Xvid Ac3 - 550 MB

Torrent Details

Game of Thrones S08 E02 English AMZN WEBRip Xvid Ac3 - 550 MB

NAME
Game of Thrones S08 E02 English AMZN WEBRip Xvid Ac3 - 550 MB.torrent
CATEGORY
Television
INFOHASH
ac1d995eb720ef1bc4840419c4928ddf20389968
SIZE
550 MB in 1 file
ADDED
Uploaded on 22-04-2019 by our crawler pet called "Spidey".
SWARM
15 seeders & 2 peers
RATING
No votes yet.

Please login to vote for this torrent.


Description

Game of Thrones S08E01 WEBRip Xvid Ac3 - 652 MB



























Media Information


IMDB : https://www.imdb.com/title/tt0944947/



General


Format : Matroska
Format version : Version 4
File size : 653 MiB
Duration : 1 h 18 min
Overall bit rate : 1 165 kb/s
Movie name : Visit : Filmmaza.org
Encoded date : UTC 2019-04-15 02:54:35
Writing application : mkvmerge v20.0.0 ('I Am The Sun') 64-bit
Writing library : libebml v1.3.5 + libmatroska v1.4.8


Video


ID : 1
Format : MPEG-4 Visual
Format profile : Advanced [email protected]
Format settings : BVOP2
Format settings, BVOP : 2
Format settings, QPel : No
Format settings, GMC : No warppoints
Format settings, Matrix : Default (MPEG)
Muxing mode : Packed bitstream
Codec ID : V_MS/VFW/FOURCC / XVID
Codec ID/Hint : XviD
Duration : 55 min 45 s
Bit rate : 1 187 kb/s
Width : 720 pixels
Height : 404 pixels
Display aspect ratio : 16:9
Frame rate mode : Constant
Frame rate : 23.976 (24000/1001) FPS
Original frame rate : 23.976 (23976/1000) FPS
Color space : YUV
Chroma subsampling : 4:2:0
Bit depth : 8 bits
Scan type : Progressive
Compression mode : Lossy
Bits/(Pixel*Frame) : 0.170
Stream size : 473 MiB (73%)
Title : Filmmaza.org
Writing library : XviD 64
Language : English
Default : Yes
Forced : Yes


Audio


ID : 2
Format : AC-3
Format/Info : Audio Coding 3
Commercial name : Dolby Digital
Codec ID : A_AC3
Duration : 55 min 45 s
Bit rate mode : Constant
Bit rate : 448 kb/s
Channel(s) : 6 channels
Channel layout : L R C LFE Ls Rs
Sampling rate : 48.0 kHz
Frame rate : 31.250 FPS (1536 SPF)
Bit depth : 16 bits
Compression mode : Lossy
Stream size : 179 MiB (27%)
Title : Filmmaza.org
Language : English
Service kind : Complete Main
Default : Yes
Forced : Yes


Text #1


ID : 3
Format : UTF-8
Codec ID : S_TEXT/UTF8
Codec ID/Info : UTF-8 Plain Text
Duration : 55 min 41 s
Bit rate : 45 b/s
Count of elements : 665
Stream size : 18.4 KiB (0%)
Title : Filmmaza.org
Language : English
Default : No
Forced : No


Text #2


ID : 4
Format : UTF-8
Codec ID : S_TEXT/UTF8
Codec ID/Info : UTF-8 Plain Text
Duration : 1 h 18 min
Bit rate : 0 b/s
Count of elements : 7
Stream size : 466 Bytes (0%)
Title : Filmmaza.org
Default : Yes
Forced : Yes

Discussion

Comments 0

Post Your Comment

Files in this torrent

FILENAMESIZE
Game of Thrones S08 E02 English AMZN WEBRip Xvid Ac3 - 550 MB.mkv550.1 MB

Alternative Torrents for 'Game of Thrones English Ac MB'.

TORRENT NAME ADDED SIZE SEEDS PEERS HEALTH
6/15/2019 953 MB 2209 1139
6/15/2019 758 MB 2181 1550
5/20/2019 1.9 GB 1844 76
5/25/2019 614 MB 1496 37
6/15/2019 1.4 GB 1427 957
4/29/2019 702 MB 1267 17
6/14/2019 1.3 GB 1155 188
4/15/2019 398 MB 1126 26
5/13/2019 626 MB 1089 35
4/15/2019 1.6 GB 1082 64
4/22/2019 393 MB 1060 19
6/13/2019 1.2 GB 1033 365
5/7/2019 647 MB 1012 12
5/28/2019 752 MB 1000 139
5/25/2019 1.4 GB 962 9