Warning! Do NOT Download Without a VPN!
Your IP Address is .   Location is United States
Your Internet Provider and Government can track your download activities! Hide your IP ADDRESS with a VPN!
We strongly recommend using a VPN service to anonymize your torrent downloads. It's FREE!
START YOUR FREE TRIAL NOW!

Black Panther (2018) BDRip 1080p [UKR_ENG] [Hurtom]

Torrent Details

Black Panther (2018) BDRip 1080p [UKR_ENG] [Hurtom]

NAME
Black Panther (2018) BDRip 1080p [UKR_ENG] [Hurtom].torrent
CATEGORY
Movies
INFOHASH
0a6894472408a5470164647c155c769bf48291ae
SIZE
15.9 GB in 1 file
ADDED
Uploaded on 23-04-2019 by our crawler pet called "Spidey".
SWARM
0 seeders & 3 peers
RATING
No votes yet.

Please login to vote for this torrent.


Description

Название: Чёрная Пантера

Оригинальное название: Black Panther

Год выхода: 2018

Жанр: Фантастика, боевик, приключения, супергерой

Режиссер: Райан Куглер



В ролях:

Чэдвик Боузмэн, Майкл Б. Джордан, Лупита Нионго, Данай Джекесай Гурира, Мартин Фриман, Дэниэл Калуя, Летишиа Райт, Уинстон Дьюк, Стерлинг К. Браун, Анджела Бассетт и другие



О фильме:

Несколько веков назад на территорию пяти враждующих африканских племен упал метеорит из вибраниума - редкого металла, способного поглощать вибрацию и направленную на него кинетическую энергию. Один из воинов съедает несколько соцветий "сердцевидной травы", пораженной внеземным сплавом. Он получает неестественные способности, становится первой "Черной пантерой" и объединяет все племена (кроме гордых сыновей гор) в один народ, заложив основы единого государства под названием Ваканда. Жить стало лучше, жить стало веселее. Со временем примитивные пастухи освоили самые передовые технологии с использованием вибраниума, что позволило им достичь рекордных показателей по настригам и надоям, кардинально увеличить срок эксплуатации охотничьих копий, а также отказаться от дотаций и братских рук помощи. И если кто-то извне все-таки решался посягнуть на национальное достояние вакандцев - Черная пантера моментально пресекала недвусмысленные поползновения, стоя на страже мира и прогресса. Но теперь легендарному духу саванны предстоит столкнуться с новым врагом, не уступающим в силе и ловкости главному защитнику Ваканды.







Страна: США

Студия: Marvel Studios Inc., Walt Disney Pictures

Продолжительность: 02:14:33

Перевод: Профессиональный дублированный (украинский язык) | студия LeDoyen



Формат: MKV

Качество: BDRip 1080p

Видео: H.264, 1920x804, 13.0 Mб/с



Звук:

Аудио # 1: DTS, 5.1, 1509 кб/с | UKR | LeDoyen

Аудио # 2: AC3, 5.1, 640 кб/с | UKR | LeDoyen

Аудио # 3: DTS, 5.1, 1509 кб/с | ENG | Оригинал

Аудио # 4: AC3, 2.0, 192 кб/с | ENG | Комментарии



Субтитри : украинские (Forced), английские (pre-rendered)

формат: *.srt, *.pgs



Скриншоты



MediaInfoGeneral

Unique ID : 183863902292807065723848075622246082494 (0x8A52E646671A2D9E97373DFAEBB167BE)

Complete name : H:» HD українською » Фільми в HDBlack Panther (2018) BDRip 1080p .mkv

Format : Matroska

Format version : Version 4 / Version 2

File size : 15.9 GiB

Duration : 2 h 14 min

Overall bit rate : 16.9 Mb/s

Movie name : Black Panther (2018) BDRip 1080p [UKR_ENG] [Hurtom]

Encoded date : UTC 2018-08-28 12:55:14

Writing application : mkvmerge v24.0.0 ('Beyond The Pale') 64-bit

Writing library : libebml v1.3.6 + libmatroska v1.4.9

Cover : Yes

Attachments : cover.jpg



Video

ID : 1

Format : AVC

Format/Info : Advanced Video Codec

Format profile : [email protected]

Format settings : CABAC / 5 Ref Frames

Format settings, CABAC : Yes

Format settings, ReFrames : 5 frames

Codec ID : V_MPEG4/ISO/AVC

Duration : 2 h 14 min

Bit rate : 13.0 Mb/s

Width : 1 920 pixels

Height : 804 pixels

Display aspect ratio : 2.40:1

Frame rate mode : Constant

Frame rate : 23.976 (24000/1001) FPS

Color space : YUV

Chroma subsampling : 4:2:0

Bit depth : 8 bits

Scan type : Progressive

Bits/(Pixel*Frame) : 0.351

Stream size : 12.2 GiB (77%)

Title : Medusa @ HDChina

Writing library : x264 core 148 r2665kMod a01e339

Encoding settings : cabac=1 / ref=5 / deblock=1:-3:-3 / analyse=0x3:0x133 / me=umh / subme=11 / psy=1 / fade_compensate=0.00 / psy_rd=0.85:0.00 / mixed_ref=1 / me_range=48 / chroma_me=1 / trellis=2 / 8x8dct=1 / cqm=0 / deadzone=21,11 / fast_pskip=0 / chroma_qp_offset=-2 / threads=24 / lookahead_threads=4 / sliced_threads=0 / nr=0 / decimate=0 / interlaced=0 / bluray_compat=0 / constrained_intra=0 / fgo=0 / bframes=8 / b_pyramid=2 / b_adapt=2 / b_bias=0 / direct=3 / weightb=1 / open_gop=0 / weightp=2 / keyint=240 / keyint_min=24 / scenecut=40 / intra_refresh=0 / rc=2pass / mbtree=0 / bitrate=13000 / ratetol=1.0 / qcomp=0.70 / qpmin=0 / qpmax=69 / qpstep=4 / cplxblur=20.0 / qblur=0.5 / ip_ratio=1.20 / pb_ratio=1.20 / aq=3:0.80

Language : English

Default : Yes

Forced : No



Audio #1

ID : 2

Format : DTS

Format/Info : Digital Theater Systems

Codec ID : A_DTS

Duration : 2 h 14 min

Bit rate mode : Constant

Bit rate : 1 509 kb/s

Channel(s) : 6 channels

Channel positions : Front: L C R, Side: L R, LFE

Sampling rate : 48.0 kHz

Frame rate : 93.750 FPS (512 SPF)

Bit depth : 24 bits

Compression mode : Lossy

Stream size : 1.42 GiB (9%)

Title : [UA-DUB-LeDoyen]

Language : Ukrainian

Default : Yes

Forced : Yes



Audio #2

ID : 3

Format : AC-3

Format/Info : Audio Coding 3

Codec ID : A_AC3

Duration : 2 h 14 min

Bit rate mode : Constant

Bit rate : 640 kb/s

Channel(s) : 6 channels

Channel positions : Front: L C R, Side: L R, LFE

Sampling rate : 48.0 kHz

Frame rate : 31.250 FPS (1536 SPF)

Bit depth : 16 bits

Compression mode : Lossy

Stream size : 616 MiB (4%)

Title : [UA-DUB-LeDoyen]

Language : Ukrainian

Service kind : Complete Main

Default : No

Forced : No



Audio #3

ID : 4

Format : DTS

Format/Info : Digital Theater Systems

Codec ID : A_DTS

Duration : 2 h 14 min

Bit rate mode : Constant

Bit rate : 1 509 kb/s

Channel(s) : 6 channels

Channel positions : Front: L C R, Side: L R, LFE

Sampling rate : 48.0 kHz

Frame rate : 93.750 FPS (512 SPF)

Bit depth : 24 bits

Compression mode : Lossy

Stream size : 1.42 GiB (9%)

Language : English

Default : No

Forced : No



Audio #4

ID : 5

Format : AC-3

Format/Info : Audio Coding 3

Codec ID : A_AC3

Duration : 2 h 14 min

Bit rate mode : Constant

Bit rate : 192 kb/s

Channel(s) : 2 channels

Channel positions : Front: L R

Sampling rate : 48.0 kHz

Frame rate : 31.250 FPS (1536 SPF)

Bit depth : 16 bits

Compression mode : Lossy

Stream size : 185 MiB (1%)

Title : Commentary

Language : English

Service kind : Complete Main

Default : No

Forced : No



Text #1

ID : 6

Format : UTF-8

Codec ID : S_TEXT/UTF8

Codec ID/Info : UTF-8 Plain Text

Duration : 2 h 12 min

Bit rate : 2 b/s

Count of elements : 77

Stream size : 2.23 KiB (0%)

Title : (Forced)

Language : Ukrainian

Default : Yes

Forced : Yes



Text #2

ID : 7

Format : PGS

Muxing mode : zlib

Codec ID : S_HDMV/PGS

Codec ID/Info : Picture based subtitle format used on BDs/HD-DVDs

Duration : 2 h 14 min

Bit rate : 32.6 kb/s

Count of elements : 3670

Stream size : 31.2 MiB (0%)

Language : English

Default : No

Forced : No



Text #3

ID : 8

Format : PGS

Muxing mode : zlib

Codec ID : S_HDMV/PGS

Codec ID/Info : Picture based subtitle format used on BDs/HD-DVDs

Duration : 2 h 14 min

Bit rate : 78.7 kb/s

Count of elements : 5252

Stream size : 75.5 MiB (0%)

Title : Commentary

Language : English

Default : No

Forced : No



Menu

00:00:00.000 : en:The Story of Home

00:06:56.291 : en:Succession To The Throne

00:12:02.805 : en:Time To Be King

00:19:12.360 : en:"Let The Challenge Begin"

00:28:32.961 : en:The Ancestral Plane

00:33:11.698 : en:Extradition

00:40:57.497 : en:Casino Mission

00:48:34.036 : en:Busan Car Chase

00:53:46.098 : en:Interrogation

01:01:57.339 : en:Sacrifices

01:08:33.026 : en:Blood Rights

01:16:46.769 : en:Ritual Combat

01:22:24.022 : en:"Burn it All"

01:31:21.434 : en:Jabariland

01:41:15.361 : en:Two Panthers

01:50:56.483 : en:The Battle For Wakanda

01:59:16.941 : en:A New Wakanda

02:02:43.648 : en:End Credits

02:13:00.000 : en:HDChina

Discussion

Comments 0

Post Your Comment

Files in this torrent

FILENAMESIZE
Black Panther (2018) BDRip 1080p [UKR_ENG] [Hurtom].mkv15.9 GB

Alternative Torrents for 'Black Panther BDRip'.

TORRENT NAME ADDED SIZE SEEDS PEERS HEALTH
4/25/2019 7.1 GB 2 4
4/24/2019 1.7 GB 1 1
2/17/2016 1.5 GB 0 0
2/18/2016 1.5 GB 0 0
4/22/2016 1.5 GB 0 0
5/2/2018 1016 MB 0 0
5/2/2018 1016 MB 0 0
5/2/2018 1012 MB 0 0
5/2/2018 1012 MB 0 0
5/2/2018 987 MB 0 0
5/2/2018 2.1 GB 0 0
5/2/2018 1 GB 0 0
5/2/2018 1.4 GB 0 0
5/2/2018 1006 MB 0 0
5/2/2018 1.4 GB 0 0