Боевые корабли 2016 XviD HDTVRip Alf62

Torrent Details


Боевые корабли 2016 XviD HDTVRip alf62

NAME
Боевые корабли 2016 XviD HDTVRip alf62.torrent
CATEGORY
Television
INFOHASH
9d13b42b59a3c1fbdfc009a6976f5cefbef46f6e
SIZE
6.3 GB in 0 files
ADDED
Uploaded on 23-04-2019 by our crawler pet called "Spidey".
SWARM
0 seeders & 0 peers
RATING
This torrent has a bad rating! This torrent has BAD rating with 0 votes.

Please login to vote for this torrent.


Description

Боевые корабли / Combat Ships



Страна: Великобритания

Производство: Woodcut Media

Год выпуска: 2017

Жанр: документальный, познавательный, флот, война, история

Продолжительность: 10х ~00:44:00



Описание: Боевые корабли - это новый сериал из 10 частей, который показывает, как технологии изменили военно-морскую войну и рассказывает истории о величайших морских битвах, победах и катастрофах на море и под водой...







Перевод: Профессиональный (одноголосый, закадровый)

Субтитры: нет



Качество: HDTVRip

Формат: AVI

Видео кодек: XviD

Аудио кодек: AС3

Видео: 720x400 (16:9), 25.000 fps, XviD build 73 ~1 900 kbps avg

Аудио: 48.0 kHz, AC3 Dolby Digital, 2/0 (L,R) ch, ~192 kbps







Релиз от: alf62

Media InfoGeneral

Формат : AVI

Формат/Информация : Audio Video Interleave

Размер файла : 650 Мбайт

Продолжительность : 43 м.

Общий поток : 2102 Кбит/сек

Программа кодирования : VirtualDubMod 1.5.10.3 | (build 2550/release)

Библиотека кодирования : VirtualDubMod build 2550/release



Видео

Идентификатор : 0

Формат : MPEG-4 Visual

Профиль формата : Advanced [email protected]

Параметр BVOP формата : 2

Параметр QPel формата : Нет

Параметр GMC формата : Без точки перехода

Параметр матрицы формата : Default (MPEG)

Идентификатор кодека : XVID

Идентификатор кодека/Подсказка : XviD

Продолжительность : 43 м.

Битрейт : 1900 Кбит/сек

Ширина : 720 пикселей

Высота : 400 пикселей

Соотношение сторон : 16:9

Частота кадров : 25,000 кадров/сек

Цветовое пространство : YUV

Субдискретизация насыщенности : 4:2:0

Битовая глубина : 8 бит

Тип развёртки : Прогрессивная

Метод сжатия : С потерями

Бит/(Пиксели*Кадры) : 0.264

Размер потока : 587 Мбайт (90%)

Библиотека кодирования : XviD 73



Аудио

Идентификатор : 1

Формат : AC-3

Формат/Информация : Audio Coding 3

Расширение режима : CM (complete main)

Параметр Endianness формата : Big

Идентификатор кодека : 2000

Продолжительность : 43 м.

Вид битрейта : Постоянный

Битрейт : 192 Кбит/сек

Каналы : 2 канала

Расположение каналов : Front: L R

Частота : 48,0 КГц

Битовая глубина : 16 бит

Метод сжатия : С потерями

Размер потока : 59,3 Мбайт (9%)

Выравнивание : Разделение по промежуткам

Продолжительность промежутка : 40 мс. (1,00 видеокадр)

Время предзагрузки промежутка : 500 мс.Скриншоты

Discussion

Comments 0

Post Your Comment

Torrent Files (Unavailable)

Please check back later to get a list of all files included in this torrent.

Alternative Torrents for 'Боевые корабли HDTVRip alf'.

There are no alternative torrents found.