Avengers Endgame 2019 Movies HDTC X264 Clean Audio New Source With Sample ☻rDX☻

Torrent Details

Avengers Endgame 2019 Movies HDTC x264 Clean Audio New Source with Sample ☻rDX☻
Avengers Endgame 2019 Movies HDTC x264 Clean Audio New Source with Sample ☻rDX☻

NAME
Avengers Endgame 2019 Movies HDTC x264 Clean Audio New Source with Sample ☻rDX☻.torrent
CATEGORY
Movies
INFOHASH
6234c40b51a0dd343ee8d3e0b75cf6ce24085507
SIZE
726 MB in 0 files
ADDED
Uploaded on 28-04-2019 by our crawler pet called "Spidey".
SWARM
0 seeders & 0 peers
RATING
No votes yet.

Please login to vote for this torrent.


Description

SCREEN SHOTS & POSTER:

 

https://iphonehosting.eu/19/advocate/return/index.html

https://iphonehosting.eu/19/advocate/return/1.html

https://iphonehosting.eu/19/advocate/return/2.html

https://iphonehosting.eu/19/advocate/return/3.html

https://iphonehosting.eu/19/advocate/return/4.html

https://iphonehosting.eu/19/advocate/return/5.html

https://iphonehosting.eu/19/advocate/return/6.html

https://iphonehosting.eu/19/advocate/return/7.html

https://iphonehosting.eu/19/advocate/return/8.html

https://iphonehosting.eu/19/advocate/return/9.html

https://iphonehosting.eu/19/advocate/return/10.html



File size                                : 723 MiB

Duration                                 : 2 h 58 min

Overall bit rate                         : 566 kb/s

Movie name                               : Avengers Endgame 2019 Movies HDTC x264 Clean Audio New Source ☻rDX☻



Video

ID                                       : 2

Format                                   : AVC

Format/Info                              : Advanced Video Codec

Format profile                           : [email protected]

Format settings, CABAC                   : Yes

Format settings, ReFrames                : 2 frames

Format settings, GOP                     : M=1, N=12

Codec ID                                 : V_MPEG4/ISO/AVC

Duration                                 : 2 h 58 min

Bit rate                                 : 491 kb/s

Width                                    : 700 pixels

Height                                   : 298 pixels

Display aspect ratio                     : 2.35:1

Frame rate mode                          : Constant

Frame rate                               : 24.000 FPS

Color space                              : YUV

Chroma subsampling                       : 4:2:0

Bit depth                                : 8 bits

Scan type                                : Progressive

Bits/(Pixel*Frame)                       : 0.098

Stream size                              : 627 MiB (87%)

Title                                    : ☻rDX☻

Default                                  : Yes

Forced                                   : No



Audio

ID                                       : 1

Format                                   : AC-3

Format/Info                              : Audio Coding 3

Mode extension                           : CM (complete main)

Format settings, Endianness              : Big

Codec ID                                 : A_AC3

Duration                                 : 2 h 58 min

Bit rate mode                            : Constant

Bit rate                                 : 64.0 kb/s

Channel(s)                               : 2 channels

Channel positions                        : Front: L R

Sampling rate                            : 44.1 kHz

Frame rate                               : 28.711 FPS (1536 spf)

Bit depth                                : 16 bits

Compression mode                         : Lossy

Stream size                              : 81.8 MiB (11%)

Title                                    : ☻rDX☻

Default                                  : Yes

Forced                                   : No



https://www.imdb.com/title/tt4154796/

Discussion

Comments 0

Post Your Comment

Torrent Files (Unavailable)

Please check back later to get a list of all files included in this torrent.

Alternative Torrents for 'Avengers Endgame Movies HDTC Clean Audio Source with Sample ☻rDX☻'.

TORRENT NAMEADDEDSIZESEEDSPEERSHEALTH
6/17/2019724 MB00
4/28/2019726 MB00