Warning! Do NOT Download Without a VPN!
Your IP Address is .   Location is United States
Your Internet Provider and Government can track your download activities! Hide your IP ADDRESS with a VPN!
We strongly recommend using a VPN service to anonymize your torrent downloads. It's FREE!
START YOUR FREE TRIAL NOW!

Arctic 2018 BDREMUX 1080p SeleZen

Torrent Details

Arctic 2018 BDREMUX 1080p seleZen

NAME
Arctic 2018 BDREMUX 1080p seleZen.torrent
CATEGORY
Movies
INFOHASH
a9ed681049f42ec03408d97cc9b85aac45241b24
SIZE
24.4 GB in 1 file
ADDED
Uploaded on 30-04-2019 by our crawler pet called "Spidey".
SWARM
36 seeders & 4 peers
RATING
No votes yet.

Please login to vote for this torrent.


Description

Информация о фильме

Название: Затерянные во льдах

Оригинальное название: Arctic

Год выхода: 2018

Жанр: Драма, приключения

Режиссер: Джо Пенна

В ролях: Мадс Миккельсен, Мария Тельма Смарадоттир







О фильме: Пилот потерпевшего крушение самолёта отчаянно борется за жизнь в ледяной арктической пустыне. Он научился справляться с холодом и рыбачить в ожидании спасателей. Но вертолёт, прилетевший ему на помощь, попадает в снежную бурю и разбивается. Единственная выжившая тяжело ранена. Перед героем встаёт выбор: ждать спасателей или пуститься в долгий опасный путь до ближайшей станции.



Страна: Исландия

Студия: Armory Films, Pegasus Pictures, Union Entertainment Group

Продолжительность: 01:38:06

Перевод: Дублированный | iTunes



Качество: BDRemux 1080p

Видео: MPEG-4 AVC, 1920x1080, 31.9 Mbit/s, 23.976 fps

Звук:

Аудио #01: 48 kHz, AC3, 5.1, 384 Kbps | iTunes | RUS |

Аудио #02: 48 kHz, DTS-HD MA, 5.1, 3366 Kbps | Оригинал | ENG |

Субтитры: Русские (Full), английские







MIGeneral

Unique ID : 189234180980602141713335996532513699251 (0x8E5D2D74E9F0FA9443DD02077BE1F5B3)

Complete name : D:Video111Arctic.2018.BDREMUX.1080p.seleZen.mkv

Format : Matroska

Format version : Version 4

File size : 24.4 GiB

Duration : 1 h 38 min

Overall bit rate mode : Variable

Overall bit rate : 35.7 Mb/s

Movie name : Arctic 2018 from селезень

Encoded date : UTC 2019-04-30 14:17:22

Writing application : mkvmerge v32.0.0 ('Astral Progressions') 64-bit

Writing library : libebml v1.3.7 + libmatroska v1.5.0



Video

ID : 1

Format : AVC

Format/Info : Advanced Video Codec

Format profile : [email protected]

Format settings : CABAC / 4 Ref Frames

Format settings, CABAC : Yes

Format settings, Reference : 4 frames

Codec ID : V_MPEG4/ISO/AVC

Duration : 1 h 38 min

Bit rate mode : Variable

Bit rate : 31.9 Mb/s

Maximum bit rate : 35.0 Mb/s

Width : 1 920 pixels

Height : 1 080 pixels

Display aspect ratio : 16:9

Frame rate mode : Constant

Frame rate : 23.976 (24000/1001) FPS

Color space : YUV

Chroma subsampling : 4:2:0

Bit depth : 8 bits

Scan type : Progressive

Bits/(Pixel*Frame) : 0.642

Stream size : 21.9 GiB (89%)

Language : English

Default : Yes

Forced : No



Audio #1

ID : 2

Format : AC-3

Format/Info : Audio Coding 3

Commercial name : Dolby Digital

Codec ID : A_AC3

Duration : 1 h 38 min

Bit rate mode : Constant

Bit rate : 384 kb/s

Channel(s) : 6 channels

Channel layout : L R C LFE Ls Rs

Sampling rate : 48.0 kHz

Frame rate : 31.250 FPS (1536 SPF)

Bit depth : 16 bits

Compression mode : Lossy

Stream size : 269 MiB (1%)

Title : iTunes

Language : Russian

Service kind : Complete Main

Default : Yes

Forced : Yes



Audio #2

ID : 3

Format : DTS XLL

Format/Info : Digital Theater Systems

Commercial name : DTS-HD Master Audio

Codec ID : A_DTS

Duration : 1 h 38 min

Bit rate mode : Variable

Bit rate : 3 366 kb/s

Channel(s) : 6 channels

Channel layout : C L R Ls Rs LFE

Sampling rate : 48.0 kHz

Frame rate : 93.750 FPS (512 SPF)

Bit depth : 24 bits

Compression mode : Lossless

Stream size : 2.31 GiB (9%)

Title : Original

Language : English

Default : No

Forced : No



Text #1

ID : 4

Format : UTF-8

Codec ID : S_TEXT/UTF8

Codec ID/Info : UTF-8 Plain Text

Duration : 1 h 31 min

Bit rate : 5 b/s

Count of elements : 132

Stream size : 3.76 KiB (0%)

Title : Full

Language : Russian

Default : No

Forced : No



Text #2

ID : 5

Format : UTF-8

Codec ID : S_TEXT/UTF8

Codec ID/Info : UTF-8 Plain Text

Duration : 1 h 25 min

Bit rate : 2 b/s

Count of elements : 127

Stream size : 1.87 KiB (0%)

Title : Full

Language : English

Default : No

Forced : No



Text #3

ID : 6

Format : UTF-8

Codec ID : S_TEXT/UTF8

Codec ID/Info : UTF-8 Plain Text

Duration : 1 h 31 min

Bit rate : 6 b/s

Count of elements : 312

Stream size : 4.54 KiB (0%)

Title : SDH

Language : English

Default : No

Forced : No



Menu

00:00:00.000 : ru:Глава 01

00:05:09.893 : ru:Глава 02

00:09:31.112 : ru:Глава 03

00:14:27.033 : ru:Глава 04

00:20:48.289 : ru:Глава 05

00:23:42.254 : ru:Глава 06

00:30:56.229 : ru:Глава 07

00:37:04.639 : ru:Глава 08

00:42:31.632 : ru:Глава 09

00:48:00.127 : ru:Глава 10

00:50:30.819 : ru:Глава 11

00:56:30.095 : ru:Глава 12

01:02:47.430 : ru:Глава 13

01:06:19.684 : ru:Глава 14

01:10:20.258 : ru:Глава 15

01:13:42.501 : ru:Глава 16

01:18:53.270 : ru:Глава 17

01:22:54.928 : ru:Глава 18

01:26:28.725 : ru:Глава 19

01:32:47.645 : ru:Глава 20



Релиз от:



Discussion

Comments 0

Post Your Comment

Files in this torrent

FILENAMESIZE
Arctic.2018.BDREMUX.1080p.seleZen.mkv24.4 GB

Alternative Torrents for 'Arctic BDREMUX seleZen'.

There are no alternative torrents found.