Kavkazskaya Plennitsa 2014 RUS WEB-DLRip XviD AC3 -ENGINEER

Torrent Details

Kavkazskaya Plennitsa 2014 RUS WEB-DLRip XviD AC3 -ENGINEER

NAME
Kavkazskaya Plennitsa 2014 RUS WEB-DLRip XviD AC3 -ENGINEER.torrent
CATEGORY
Movies
INFOHASH
4d60bdc57360ae4ddaebd61e9e38e95e712d6bed
SIZE
1.5 GB in 1 file
ADDED
Uploaded on 01-05-2019 by our crawler pet called "Spidey".
SWARM
0 seeders & 0 peers
RATING
No votes yet.

Please login to vote for this torrent.


Description

Кавказская пленница! (2014) WEB-DLRip

Релиз от: ENGINEER







Информация о фильме



Оригинальное название: Кавказская пленница!

Год выхода: 2014

Жанр: Комедия



Режиссер: Максим Воронков



В ролях: Дмитрий Шаракоис, Анастасия Задорожная, Геннадий Хазанов, Арарат Кещян, Семён Стругачев, Сергей Степанченко, Николай Добрынин, Михаил Ефремов, Юлий Гусман, Лариса Удовиченко



О фильме:

Журналист Шурик приезжает на Кавказ, чтобы снять репортаж о местных красотах и традициях, и попадает в Горск, вотчину местного мэра города Георгия Гаджиевича Саахова. Тот, поддерживая моду, заданную губернатором, задумал жениться на молоденькой красавице, спортсменке и даже экстремалке Нине, которая так понравилась Шурику. Используя незадачливого журналиста, Саахов и его подручные похищают Нину. Но, поняв, что его разыграли, Шурик бросается спасать любимую девушку…







Страна: Россия

Студия: Продюсерский центр «Ильи Олейникова»

Продолжительность: 01:35:35

Язык: Русский



Качество: WEB-DLRip

Файл : AVI

Кодек: XviD, build 65 codec

Видео: 720 x 304; 24 fps; 1784 kbps; 0.34 bit/pixel

Аудио: 48 kHz; 6 ch; 384.00 kbps; AC3 Dolby Digital

Размер: 1488.98 Mb (1/3 DVD5)



Скриншоты (превью - увеличение по клику):









MediaInfo :



Format : AVI

Format/Info : Audio Video Interleave

File size : 1.45 GiB

Duration : 1h 35mn

Overall bit rate : 2 178 Kbps

Movie name : Кавказская пленница! (2014)

Director : MECHANICAL ENGINEER (WEB-DL 1080p)

Genre : Comedy

Writing application : VirtualDubMod 1.5.10.3 | www.virtualdub-fr.org || (build 2550/release)

Copyright : Россия

Comment : 01:12:2015



Video

ID : 0

Format : MPEG-4 Visual

Format profile : Advanced [email protected]

Format settings, BVOP : 1

Format settings, QPel : No

Format settings, GMC : No warppoints

Format settings, Matrix : Custom

Codec ID : XVID

Codec ID/Hint : XviD

Duration : 1h 35mn

Bit rate : 1 785 Kbps

Width : 720 pixels

Height : 304 pixels

Display aspect ratio : 2.35:1

Frame rate : 24.000 fps

Color space : YUV

Chroma subsampling : 4:2:0

Bit depth : 8 bits

Scan type : Progressive

Compression mode : Lossy

Bits/(Pixel*Frame) : 0.340

Stream size : 1.19 GiB (82%)

Writing library : XviD 65



Audio

ID : 1

Format : AC-3

Format/Info : Audio Coding 3

Mode extension : CM (complete main)

Codec ID : 2000

Duration : 1h 35mn

Bit rate mode : Constant

Bit rate : 384 Kbps

Channel(s) : 6 channels

Channel positions : Front: L C R, Side: L R, LFE

Sampling rate : 48.0 KHz

Bit depth : 16 bits

Compression mode : Lossy

Stream size : 263 MiB (18%)

Alignment : Split accross interleaves

Interleave, duration : 42 ms (1.00 video frame)

Interleave, preload duration : 500 ms



comparison



http://zerkalo-rutor.org/torrent/418612/kavkazskaja-plennica!-2014-web-dlrip-itunes



http://screenshotcomparison.com/comparison/152755/



http://screenshotcomparison.com/comparison/152752



http://screenshotcomparison.com/comparison/152754







Автор рипа: MECHANICAL ENGINEER

Источник : WEB-DL 1080р



Релизы 1ENGINEER и Релизы MECHANICAL ENGINEER



ПРИЯТНОГО ПРОСМОТРА!

Discussion

Comments 0

Post Your Comment

Files in this torrent

FILENAMESIZE
Kavkazskaya.Plennitsa.2014.RUS.WEB-DLRip.XviD.AC3.-ENGINEER.avi1.5 GB

Alternative Torrents for 'Kavkazskaya Plennitsa RUS DLRip ENGINEER'.

TORRENT NAMEADDEDSIZESEEDSPEERSHEALTH
5/1/20191.5 GB00