Kung Fu Panda Secrets Of The Scroll 2016 X264 WEB-DLRip AVC ExKinoRay

Torrent Details


Kung Fu Panda Secrets Of The Scroll 2016 x264 WEB-DLRip AVC<span style=color:#fc9c6d> ExKinoRay</span>

NAME
Kung Fu Panda Secrets Of The Scroll 2016 x264 WEB-DLRip AVC ExKinoRay.torrent
CATEGORY
Anime
INFOHASH
4260698c5d848fdbbe7c3e8c240d8127dd764273
SIZE
546 MB in 1 file
ADDED
Uploaded on 01-05-2019 by our crawler pet called "Spidey".
SWARM
0 seeders & 0 peers
RATING
No votes yet.

Please login to vote for this torrent.


Description

Информация о фильме



Название: Кунг-Фу Панда: Загадки свитка

Оригинальное название: Kung Fu Panda: Secrets of the Scroll

Год выпуска: 2016

Жанр: Мультфильм

Выпущено: США, DreamWorks Animation

Режиссер: Рудольф Гуеноден

В ролях: Джек Блэк, Дастин Хоффман, Анджелина Джоли, Иэн МакШейн, Джеки Чан, Сет Роген, Люси Лью, Дэвид Кросс, Рэндолл Дак Ким, Джеймс Хонг





О фильме: Тигрица, Змея, Обезьяна, Журавль и Богомол из обычных незнакомцев превращаются в легендарную Неистовую Пятерку Кунг-Фу.













Файл



Качество: WEB-DLRip (AVC)

Видео: MPEG-4 AVC, 2676 Кбит/с, 1024x576, 23.976 кадр/с

Аудио: Русский (AC3, 6 ch, 384 Кбит/с), английский (AС3, 2 ch, 192 Кбит/с)

Размер: 545.90 МБ

Продолжительность: 00:23:27

Перевод: Дублированный





Озвучивание - Дублированное (iTunes Russia)





x264

x264 [info]: frame I:424 Avg QP:13.31 size:126288

x264 [info]: frame P:10260 Avg QP:16.30 size: 26718

x264 [info]: frame B:23066 Avg QP:16.92 size: 6223

x264 [info]: consecutive B-frames: 6.2% 8.4% 6.4% 71.3% 3.6% 2.8% 0.3% 0.2% 0.0% 0.8%

x264 [info]: mb I I16..4: 8.6% 42.3% 49.0%

x264 [info]: mb P I16..4: 1.0% 9.5% 2.9% P16..4: 22.7% 23.2% 13.4% 4.0% 0.7% skip:22.6%

x264 [info]: mb B I16..4: 0.1% 0.8% 0.3% B16..8: 21.3% 13.0% 3.5% direct: 3.8% skip:57.1% L0:39.9% L1:47.3% BI:12.8%

x264 [info]: 8x8 transform intra:64.7% inter:35.8%

x264 [info]: direct mvs spatial:96.8% temporal:3.2%

x264 [info]: coded y,uvDC,uvAC intra: 87.0% 92.0% 82.3% inter: 15.7% 19.3% 14.3%

x264 [info]: i16 v,h,dc,p: 25% 16% 12% 47%

x264 [info]: i8 v,h,dc,ddl,ddr,vr,hd,vl,hu: 11% 12% 11% 8% 10% 10% 12% 10% 15%

x264 [info]: i4 v,h,dc,ddl,ddr,vr,hd,vl,hu: 12% 12% 6% 9% 13% 12% 12% 10% 14%

x264 [info]: i8c dc,h,v,p: 43% 27% 16% 14%

x264 [info]: Weighted P-Frames: Y:1.8% UV:1.4%

x264 [info]: ref P L0: 63.1% 8.9% 11.0% 5.1% 3.6% 2.7% 2.2% 1.3% 1.0% 0.8% 0.1% 0.0%

x264 [info]: ref B L0: 81.0% 9.9% 4.1% 1.8% 1.2% 0.8% 0.6% 0.3% 0.2%

x264 [info]: ref B L1: 95.6% 4.4%

x264 [info]: kb/s:2678.03



Инфо-файл

Общее

Уникальный идентификатор : 237204015437806432776940908283863808722 (0xB273D4E571FA8EE19682B0371D0CBAD2)

Полное имя : D:ЗагрузкиKung.Fu.Panda.Secrets.Of.The.Scroll.2016.x264.WEB-DLRip.AVC.ExKinoRay.mkv

Формат : Matroska

Версия формата : Version 2

Размер файла : 546 Мбайт

Продолжительность : 23 м.

Общий поток : 3253 Кбит/сек

Название фильма : Кунг-Фу Панда: Загадки свитка.2016.

Дата кодирования : UTC 2016-06-11 21:04:34

Программа кодирования : mkvmerge v5.6.0 ('Kenya Kane') built on May 27 2012 16:44:04

Библиотека кодирования : libebml v1.2.3 + libmatroska v1.3.0

Attachements : Cover - Kung.Fu.Panda.Secrets.Of.The.Scroll.png



Видео

Идентификатор : 1

Формат : AVC

Формат/Информация : Advanced Video Codec

Профиль формата : [email protected]

Параметр CABAC формата : Да

Параметр ReFrames формата : 10 кадров

Идентификатор кодека : V_MPEG4/ISO/AVC

Продолжительность : 23 м.

Битрейт : 2676 Кбит/сек

Ширина : 1024 пикселя

Высота : 576 пикселей

Соотношение сторон : 16:9

Режим частоты кадров : Постоянный

Частота кадров : 23,976 (24000/1001) кадра/сек

Цветовое пространство : YUV

Субдискретизация насыщенности : 4:2:0

Битовая глубина : 8 бит

Тип развёртки : Прогрессивная

Бит/(Пиксели*Кадры) : 0.189

Размер потока : 438 Мбайт (80%)

Библиотека кодирования : x264 core 146 r2538 121396c

Настройки программы : cabac=1 / ref=10 / deblock=1:-3:-3 / analyse=0x3:0x133 / me=umh / subme=11 / psy=1 / psy_rd=1.00:0.05 / mixed_ref=1 / me_range=48 / chroma_me=1 / trellis=2 / 8x8dct=1 / cqm=0 / deadzone=21,11 / fast_pskip=0 / chroma_qp_offset=-3 / threads=12 / lookahead_threads=2 / sliced_threads=0 / nr=0 / decimate=0 / interlaced=0 / bluray_compat=0 / constrained_intra=0 / bframes=9 / b_pyramid=2 / b_adapt=2 / b_bias=0 / direct=3 / weightb=1 / open_gop=0 / weightp=2 / keyint=240 / keyint_min=23 / scenecut=40 / intra_refresh=0 / rc_lookahead=40 / rc=2pass / mbtree=0 / bitrate=2676 / ratetol=1.0 / qcomp=0.60 / qpmin=0 / qpmax=69 / qpstep=4 / cplxblur=20.0 / qblur=0.5 / vbv_maxrate=50000 / vbv_bufsize=62500 / nal_hrd=none / filler=0 / ip_ratio=1.40 / pb_ratio=1.30 / aq=1:1.00

Язык : English

Default : Да

Forced : Нет



Аудио #1

Идентификатор : 2

Формат : AC-3

Формат/Информация : Audio Coding 3

Расширение режима : CM (complete main)

Параметр Endianness формата : Big

Идентификатор кодека : A_AC3

Продолжительность : 23 м.

Вид битрейта : Постоянный

Битрейт : 384 Кбит/сек

Каналы : 6 каналов

Расположение каналов : Front: L C R, Side: L R, LFE

Частота : 48,0 КГц

Частота кадров : 31,250 кадров/сек (1536 spf)

Метод сжатия : С потерями

Размер потока : 64,4 Мбайт (12%)

Заголовок : Дублированный (iTunes Russia)

Язык : Russian

Default : Да

Forced : Нет



Аудио #2

Идентификатор : 3

Формат : AC-3

Формат/Информация : Audio Coding 3

Расширение режима : CM (complete main)

Параметр Endianness формата : Big

Идентификатор кодека : A_AC3

Продолжительность : 23 м.

Вид битрейта : Постоянный

Битрейт : 192 Кбит/сек

Каналы : 2 канала

Расположение каналов : Front: L R

Частота : 48,0 КГц

Частота кадров : 31,250 кадров/сек (1536 spf)

Метод сжатия : С потерями

Размер потока : 32,2 Мбайт (6%)

Язык : English

Default : Нет

Forced : Нет



Меню

00:00:00.000 : en:1







Скриншоты











Релиз от: Rip by:

Discussion

Comments 0

Post Your Comment

Files in this torrent

FILENAMESIZE
Kung.Fu.Panda.Secrets.Of.The.Scroll.2016.x264.WEB-DLRip.AVC.ExKinoRay.mkv545.9 MB

Alternative Torrents for 'Kung Fu Panda Secrets Of Scroll DLRip AVC'.

TORRENT NAMEADDEDSIZESEEDSPEERSHEALTH
5/1/2019546 MB00