Warning! Do NOT Download Without a VPN!
Your IP Address is .   Location is United States
Your Internet Provider and Government can track your download activities! Hide your IP ADDRESS with a VPN!
We strongly recommend using a VPN service to anonymize your torrent downloads. It's FREE!
START YOUR FREE TRIAL NOW!

Балканский рубеж 2019 WEB-DL 1080p

Torrent Details

Балканский рубеж 2019 WEB-DL 1080p

NAME
Балканский рубеж 2019 WEB-DL 1080p.torrent
CATEGORY
Movies
INFOHASH
8e27372a7e43fd4614aef0e60730d085abd09fcf
SIZE
5.2 GB in 0 files
ADDED
Uploaded on 02-05-2019 by our crawler pet called "Spidey".
SWARM
352 seeders & 8 peers
RATING
No votes yet.

Please login to vote for this torrent.


Description

Информация о фильме

Название: Балканский рубеж

Год выпуска: 2019

Жанр: Боевик, драма

Режиссер: Андрей Волгин

В ролях: Антон Пампушный, Гоша Куценко, Милош Бикович, Милена Радулович, Гойко Митич, Равшана Куркова, Дмитрий Фрид, Александар Сречкович, Светлана Чуйкина, Миодраг Радонич



О фильме: Югославия. 1999 год. Российская спецгруппа получает приказ взять под контроль аэродром Слатина в Косово и удерживать его до прихода подкрепления. Но этот стратегический объект крайне важен албанскому полевому командиру и натовским генералам. Группа вынуждена принять неравный бой с террористами. К аэродрому устремляются российские миротворцы и силы НАТО. Мир вновь близок к большой войне. Но командиру спецгруппы Андрею Шаталову не до политики: в аэропорту среди заложников его любимая девушка Ясна.







Выпущено: Россия, Сербия, Апгрейд Вижн, Блесс-Фильм, Archangel Studios

Продолжительность: 02:30:35

Язык: Русский | iTunes



Файл

Качество: WEB-DL 1080p

Контейнер: MKV

Видео: MPEG-4 AVC, 1920x806, 4455 Kb/s

Аудио: Russian: AC3, 6 ch, 384 Кb/s

Субтитры: Нет



Скриншоты

MediaInfoGeneral

Unique ID : 226817726274207619570412412616815694258 (0xAAA3814DE6C804B2BD88CB3C06B851B2)

Complete name : Балканский.рубеж.2019.WEB-DL.1080p.mkv

Format : Matroska

Format version : Version 2

File size : 5.19 GiB

Duration : 2 h 30 min

Overall bit rate : 4 938 kb/s

Encoded date : UTC 2019-05-01 22:14:16

Writing application : mkvmerge v5.8.0 ('No Sleep / Pillow') built on Sep 2 2012 15:37:04

Writing library : libebml v1.2.3 + libmatroska v1.3.0



Video

ID : 1

Format : AVC

Format/Info : Advanced Video Codec

Format profile : [email protected]

Format settings, CABAC : Yes

Format settings, RefFrames : 5 frames

Codec ID : V_MPEG4/ISO/AVC

Duration : 2 h 30 min

Bit rate : 4 455 kb/s

Width : 1 920 pixels

Height : 806 pixels

Display aspect ratio : 2.40:1

Frame rate mode : Constant

Frame rate : 24.000 FPS

Color space : YUV

Chroma subsampling : 4:2:0

Bit depth : 8 bits

Scan type : Progressive

Bits/(Pixel*Frame) : 0.120

Stream size : 4.69 GiB (90%)

Title : Балканский.рубеж.2019.WEB-DL.1080p

Language : English

Default : Yes

Forced : No

Color range : Limited

Color primaries : BT.709

Transfer characteristics : BT.709

Matrix coefficients : BT.709



Audio

ID : 2

Format : AC-3

Format/Info : Audio Coding 3

Format settings, Endianness : Big

Codec ID : A_AC3

Duration : 2 h 30 min

Bit rate mode : Constant

Bit rate : 384 kb/s

Channel(s) : 6 channels

Channel positions : Front: L C R, Side: L R, LFE

Sampling rate : 48.0 kHz

Frame rate : 31.250 FPS (1536 SPF)

Bit depth : 16 bits

Compression mode : Lossy

Stream size : 414 MiB (8%)

Title : iTunes

Language : Russian

Service kind : Complete Main

Default : Yes

Forced : No



Menu

00:00:00.000 : en:Глава 1

00:08:07.583 : en:Глава 2

00:16:05.374 : en:Глава 3

00:24:34.164 : en:Глава 4

00:32:34.704 : en:Глава 5

00:40:46.079 : en:Глава 6

00:48:54.370 : en:Глава 7

00:57:07.203 : en:Глава 8

01:05:33.661 : en:Глава 9

01:15:00.618 : en:Глава 10

01:23:12.534 : en:Глава 11

01:31:20.659 : en:Глава 12

01:39:42.491 : en:Глава 13

01:47:49.948 : en:Глава 14

01:56:03.614 : en:Глава 15

02:04:19.739 : en:Глава 16

02:13:00.239 : en:Глава 17

02:21:11.030 : en:Глава 18

Discussion

Comments 0

Post Your Comment

Torrent Files (Unavailable)

Please check back later to get a list of all files included in this torrent.

Alternative Torrents for 'Балканский рубеж 2019 WEB-DL 1080p'.

There are no alternative torrents found.