Warning! Do NOT Download Without a VPN!
Your IP Address is .   Location is United States
Your Internet Provider and Government can track your download activities! Hide your IP ADDRESS with a VPN!
We strongly recommend using a VPN service to anonymize your torrent downloads. It's FREE!
START YOUR FREE TRIAL NOW!

Game Of Thrones S08E04 The Last Of The Starks 1080p AMZN Webrip X265 EAC3 5 1 - Goki [SEV]

Torrent Details

Game of Thrones S08E04 The Last of the Starks 1080p AMZN Webrip x265 EAC3 5 1 - Goki [SEV]

NAME
Game of Thrones S08E04 The Last of the Starks 1080p AMZN Webrip x265 EAC3 5 1 - Goki [SEV].torrent
CATEGORY
Television
INFOHASH
25c9db98e47e2f12799a3cf3485d2d398141f4b0
SIZE
1.6 GB in 1 file
ADDED
Uploaded on 06-05-2019 by our crawler pet called "Spidey".
SWARM
12 seeders & 2 peers
RATING
No votes yet.

Please login to vote for this torrent.


Description







'' '' '' ''









Media Information



Unique ID                                : 333624087366664753576748711315521243604 (0xFAFDA97904829294991AB66EFE9589D4)

Complete name                            : Game of Thrones S08E04 The Last of the Starks 1080p AMZN Webrip x265 EAC3 5.1 - Goki [SEV].mkv

Format                                   : Matroska

Format version                           : Version 4

File size                                : 1.56 GiB

Duration                                 : 1 h 18 min

Overall bit rate                         : 2 829 kb/s

Movie name                               : Game of Thrones S08E04 The Last of the Starks 1080p AMZN Webrip x265 EAC3 5.1 - Goki [SEV]

Encoded date                             : UTC 2019-05-06 09:14:28

Writing application                      : mkvmerge v28.2.0 ('The Awakening') 64-bit

Writing library                          : libebml v1.3.6 + libmatroska v1.4.9



Video

ID                                       : 1

Format                                   : HEVC

Format/Info                              : High Efficiency Video Coding

Format profile                           : Main [email protected]@Main

Codec ID                                 : V_MPEGH/ISO/HEVC

Duration                                 : 1 h 18 min

Bit rate                                 : 2 187 kb/s

Width                                    : 1 920 pixels

Height                                   : 1 080 pixels

Display aspect ratio                     : 16:9

Frame rate mode                          : Constant

Frame rate                               : 23.976 (24000/1001) FPS

Color space                              : YUV

Chroma subsampling                       : 4:2:0

Bit depth                                : 10 bits

Bits/(Pixel*Frame)                       : 0.044

Stream size                              : 1.20 GiB (77%)

Writing library                          : x265 2.9+8-27d8424c799d:[Windows][MSVC 1915][64 bit] 10bit

Encoding settings                        : cpuid=1111039 / frame-threads=2 / numa-pools=4 / wpp / no-pmode / no-pme / no-psnr / no-ssim / log-level=2 / input-csp=1 / input-res=1920x1080 / interlace=0 / total-frames=0 / level-idc=0 / high-tier=1 / uhd-bd=0 / ref=4 / no-allow-non-conformance / no-repeat-headers / annexb / no-aud / no-hrd / info / hash=0 / no-temporal-layers / open-gop / min-keyint=23 / keyint=250 / gop-lookahead=0 / bframes=8 / b-adapt=2 / b-pyramid / bframe-bias=0 / rc-lookahead=100 / lookahead-slices=4 / scenecut=40 / radl=0 / no-intra-refresh / ctu=64 / min-cu-size=8 / no-rect / no-amp / max-tu-size=32 / tu-inter-depth=1 / tu-intra-depth=1 / limit-tu=0 / rdoq-level=2 / dynamic-rd=0.00 / no-ssim-rd / signhide / no-tskip / nr-intra=0 / nr-inter=0 / no-constrained-intra / no-strong-intra-smoothing / max-merge=3 / limit-refs=3 / limit-modes / me=3 / subme=5 / merange=57 / temporal-mvp / weightp / no-weightb / no-analyze-src-pics / deblock=0:0 / sao / no-sao-non-deblock / rd=4 / no-early-skip / rskip / no-fast-intra / no-tskip-fast / no-cu-lossless / no-b-intra / no-splitrd-skip / rdpenalty=0 / psy-rd=1.30 / psy-rdoq=2.00 / no-rd-refine / no-lossless / cbqpoffs=0 / crqpoffs=0 / rc=crf / crf=20.0 / qcomp=0.60 / qpstep=4 / stats-write=0 / stats-read=0 / ipratio=1.40 / pbratio=1.30 / aq-mode=2 / aq-strength=1.10 / cutree / zone-count=0 / no-strict-cbr / qg-size=32 / no-rc-grain / qpmax=69 / qpmin=0 / no-const-vbv / sar=1 / overscan=0 / videoformat=5 / range=0 / colorprim=2 / transfer=2 / colormatrix=2 / chromaloc=0 / display-window=0 / max-cll=0,0 / min-luma=0 / max-luma=1023 / log2-max-poc-lsb=8 / vui-timing-info / vui-hrd-info / slices=1 / no-opt-qp-pps / no-opt-ref-list-length-pps / no-multi-pass-opt-rps / scenecut-bias=0.05 / no-opt-cu-delta-qp / no-aq-motion / no-hdr / no-hdr-opt / no-dhdr10-opt / no-idr-recovery-sei / analysis-reuse-level=5 / scale-factor=0 / refine-intra=0 / refine-inter=0 / refine-mv=0 / no-limit-sao / ctu-info=0 / no-lowpass-dct / refine-mv-type=0 / copy-pic=1 / max-ausize-factor=1.0 / no-dynamic-refine / no-single-sei

Default                                  : Yes

Forced                                   : No



Audio

ID                                       : 2

Format                                   : E-AC-3

Format/Info                              : Enhanced AC-3

Commercial name                          : Dolby Digital Plus

Codec ID                                 : A_EAC3

Duration                                 : 1 h 18 min

Bit rate mode                            : Constant

Bit rate                                 : 640 kb/s

Channel(s)                               : 6 channels

Channel layout                           : L R C LFE Ls Rs

Sampling rate                            : 48.0 kHz

Frame rate                               : 31.250 FPS (1536 SPF)

Compression mode                         : Lossy

Delay relative to video                  : 6 ms

Stream size                              : 361 MiB (23%)

Language                                 : English

Service kind                             : Complete Main

Default                                  : Yes

Forced                                   : No



Text #1

ID                                       : 3

Format                                   : UTF-8

Codec ID                                 : S_TEXT/UTF8

Codec ID/Info                            : UTF-8 Plain Text

Duration                                 : 1 h 18 min

Bit rate                                 : 45 b/s

Count of elements                        : 872

Stream size                              : 26.4 KiB (0%)

Language                                 : English

Default                                  : No

Forced                                   : No



Text #2

ID                                       : 4

Format                                   : UTF-8

Codec ID                                 : S_TEXT/UTF8

Codec ID/Info                            : UTF-8 Plain Text

Duration                                 : 1 h 18 min

Bit rate                                 : 48 b/s

Count of elements                        : 982

Stream size                              : 28.1 KiB (0%)

Language                                 : English

Default                                  : No

Forced                                   : No



Source

AMZN GoT



.........................................................................................................................................

We have no issue with individuals posting or re-uploading our torrents on a platform we aren't on. However, if this is something you'd like to do, please do so in a 'as-is' format. We ask that you do not create a new torrent, include all descriptions you see above including the SEV logo, tags, notes and screenshots. If you'd like to become a permanent poster on a website we don't post to, feel free to get in contact with a Sublime Encoded Video member.



We are recruiting/training new members for SEV & seedbox providers as well as people to help out with subtitles.

As you already know, we deliver quality, so you know the standard.

If you're interested, feel free to contact any of the team members.

Discussion

Comments 0

Post Your Comment

Files in this torrent

FILENAMESIZE
Game of Thrones S08E04 The Last of the Starks 1080p AMZN Webrip x265 EAC3 5.1 - Goki [SEV].mkv1.6 GB

Alternative Torrents for 'Game of Thrones SE Last of Starks EAC Goki'.

TORRENT NAME ADDED SIZE SEEDS PEERS HEALTH
6/15/2019 758 MB 2073 818
5/20/2019 1.9 GB 1637 77
5/25/2019 614 MB 1457 35
6/15/2019 953 MB 1451 468
4/15/2019 398 MB 1409 24
6/15/2019 1.4 GB 1365 503
4/29/2019 702 MB 1353 22
Yesterday 842 MB 1230 695
4/22/2019 393 MB 1213 19
4/15/2019 1.6 GB 1038 78
6/13/2019 1.2 GB 1033 365
5/13/2019 626 MB 1022 25
5/28/2019 752 MB 1014 90
5/7/2019 647 MB 996 20
Yesterday 1.1 GB 957 724