Enemy At The Gates (2001) 1080p BluRay X264 Dual Audio [Hindi DD 5.1 - English DD 5.1] - ESUBS ~ Ranvijay

Torrent Details

Enemy at the Gates (2001) 1080p BluRay x264 Dual Audio [Hindi DD 5.1 - English DD 5.1] - ESUBS ~ Ranvijay
Enemy at the Gates (2001) 1080p BluRay x264 Dual Audio [Hindi DD 5.1 - English DD 5.1] - ESUBS ~ Ranvijay

NAME
Enemy at the Gates (2001) 1080p BluRay x264 Dual Audio [Hindi DD 5.1 - English DD 5.1] - ESUBS ~ Ranvijay.torrent
CATEGORY
Movies
INFOHASH
3547eea865dc1083387dbb4db98a1a7bf7e6df57
SIZE
4.6 GB in 2 files
ADDED
Uploaded on 06-05-2019 by our crawler pet called "Spidey".
SWARM
0 seeders & 0 peers
RATING
No votes yet.

Please login to vote for this torrent.


Description







Enemy at the Gates (2001) 1080p BluRay x264 Dual Audio [Hindi DD5.1 - English DD5.1] - ESUBS ~ Ranvijay [Team SSX]

Thanks To Hammer For Hindi Audio



Buy RDP Online


Format                                   : Matroska
Format version                           : Version 4 / Version 2
File size                                : 4.62 GiB
Duration                                 : 2 h 11 min
Overall bit rate                         : 5 032 kb/s
Movie name                               : Enemy at the Gates (2001) 1080p BluRay x264 Dual Audio [Hindi DD5.1 - English DD5.1] - ESUBS ~ Ranvijay

Video
ID                                       : 1
Format                                   : AVC
Format/Info                              : Advanced Video Codec
Format profile                           : [email protected]
Format settings                          : CABAC / 5 Ref Frames
Format settings, CABAC                   : Yes
Format settings, RefFrames               : 5 frames
Codec ID                                 : V_MPEG4/ISO/AVC
Duration                                 : 2 h 11 min
Bit rate                                 : 4 000 kb/s
Width                                    : 1 920 pixels
Height                                   : 816 pixels
Display aspect ratio                     : 2.35:1
Frame rate mode                          : Constant
Frame rate                               : 23.976 (24000/1001) FPS
Color space                              : YUV
Chroma subsampling                       : 4:2:0
Bit depth                                : 8 bits
Scan type                                : Progressive
Bits/(Pixel*Frame)                       : 0.106
Stream size                              : 3.66 GiB (79%)
Title                                    : ~Ranvijay~

Audio #1
ID                                       : 2
Format                                   : AC-3
Format/Info                              : Audio Coding 3
Codec ID                                 : A_AC3
Duration                                 : 2 h 11 min
Bit rate mode                            : Constant
Bit rate                                 : 640 kb/s
Channel(s)                               : 6 channels
Channel positions                        : Front: L C R, Side: L R, LFE
Sampling rate                            : 48.0 kHz
Frame rate                               : 31.250 FPS (1536 SPF)
Bit depth                                : 16 bits
Compression mode                         : Lossy
Delay relative to video                  : 1 s 76 ms
Stream size                              : 601 MiB (13%)
Title                                    : ~Ranvijay~
Language                                 : Hindi
Service kind                             : Complete Main
Default                                  : Yes
Forced                                   : Yes

Audio #2
ID                                       : 3
Format                                   : AC-3
Format/Info                              : Audio Coding 3
Codec ID                                 : A_AC3
Duration                                 : 2 h 11 min
Bit rate mode                            : Constant
Bit rate                                 : 384 kb/s
Channel(s)                               : 6 channels
Channel positions                        : Front: L C R, Side: L R, LFE
Sampling rate                            : 48.0 kHz
Frame rate                               : 31.250 FPS (1536 SPF)
Bit depth                                : 16 bits
Compression mode                         : Lossy
Stream size                              : 360 MiB (8%)
Title                                    : ~Ranvijay~
Language                                 : English
Service kind                             : Complete Main
Default                                  : No
Forced                                   : No

Text #1
ID                                       : 4
Format                                   : PGS
Muxing mode                              : zlib
Codec ID                                 : S_HDMV/PGS
Codec ID/Info                            : Picture based subtitle format used on BDs/HD-DVDs
Duration                                 : 2 h 1 min
Bit rate                                 : 25.0 kb/s
Count of elements                        : 1870
Stream size                              : 21.7 MiB (0%)
Title                                    : ~Ranvijay~
Language                                 : English
Default                                  : Yes
Forced                                   : Yes

Text #2
ID                                       : 5
Format                                   : PGS
Muxing mode                              : zlib
Codec ID                                 : S_HDMV/PGS
Codec ID/Info                            : Picture based subtitle format used on BDs/HD-DVDs
Duration                                 : 2 h 2 min
Bit rate                                 : 28.2 kb/s
Count of elements                        : 2198
Stream size                              : 24.6 MiB (1%)
Title                                    : ~Ranvijay~
Language                                 : English
Default                                  : No
Forced                                   : No

Menu
00:00:00.000                             : en:00:00:00.000
00:02:47.876                             : en:00:02:47.876
00:09:48.796                             : en:00:09:48.796
00:15:12.369                             : en:00:15:12.369
00:22:10.996                             : en:00:22:10.996
00:34:14.217                             : en:00:34:14.217
00:37:09.268                             : en:00:37:09.268
00:46:19.818                             : en:00:46:19.818
00:50:45.791                             : en:00:50:45.791
00:56:06.612                             : en:00:56:06.612
01:02:41.840                             : en:01:02:41.840
01:08:25.016                             : en:01:08:25.016
01:16:47.769                             : en:01:16:47.769
01:22:37.493                             : en:01:22:37.493
01:29:50.592                             : en:01:29:50.592
01:35:52.997                             : en:01:35:52.997
01:42:06.078                             : en:01:42:06.078
01:55:03.395                             : en:01:55:03.395
01:57:28.248                             : en:01:57:28.248
02:01:21.231                             : en:02:01:21.231




















Don't walk as you are king, walk as you don't care who the king is....!!

[/b]

Discussion

Comments 0

Post Your Comment

Files in this torrent

FILENAMESIZE
Enemy at the Gates (2001) 1080p BluRay x264 Dual Audio [Hindi DD5.1 - English DD5.1] - ESUBS ~ Ranvijay.mkv4.6 GB
Sample - Enemy at the Gates (2001) 1080p BluRay x264 Dual Audio [Hindi DD5.1 - English DD5.1] - ESUBS ~ Ranvijay.mkv30 MB

Alternative Torrents for 'Enemy at Gates BluRay Dual Audio Hindi DD English DD . ESUBS Ranvijay'.

There are no alternative torrents found.