Warning! Do NOT Download Without a VPN!
Your IP Address is .   Location is United States
Your Internet Provider and Government can track your download activities! Hide your IP ADDRESS with a VPN!
We strongly recommend using a VPN service to anonymize your torrent downloads. It's FREE!
START YOUR FREE TRIAL NOW!

Student Of The Year 2 2019 Hindi Movies PDVDRip X264 Clean Audio With Sample ☻rDX☻

Torrent Details

Student Of The Year 2 2019 Hindi Movies PDVDRip x264 Clean Audio with Sample ☻rDX☻

NAME
Student Of The Year 2 2019 Hindi Movies PDVDRip x264 Clean Audio with Sample ☻rDX☻.torrent
CATEGORY
Movies
INFOHASH
b4eed90c2bac238cd769f81e932b1257236af325
SIZE
713 MB in 0 files
ADDED
Uploaded on 11-05-2019 by our crawler pet called "Spidey".
SWARM
107 seeders & 16 peers
RATING
No votes yet.

Please login to vote for this torrent.


Description

SCREEN SHOTS & POSTER:

 

https://iphonehosting.eu/19/advocate/ipad/index.html

https://iphonehosting.eu/19/advocate/ipad/1.html

https://iphonehosting.eu/19/advocate/ipad/2.html

https://iphonehosting.eu/19/advocate/ipad/3.html

https://iphonehosting.eu/19/advocate/ipad/4.html

https://iphonehosting.eu/19/advocate/ipad/5.html

https://iphonehosting.eu/19/advocate/ipad/6.html

https://iphonehosting.eu/19/advocate/ipad/7.html

https://iphonehosting.eu/19/advocate/ipad/8.html

https://iphonehosting.eu/19/advocate/ipad/9.html

https://iphonehosting.eu/19/advocate/ipad/10.html



File size                                : 710 MiB

Duration                                 : 2 h 21 min

Overall bit rate                         : 703 kb/s

Movie name                               : Student Of The Year 2 2019 Hindi Movies PDVDRip x264 Clean Audio ☻rDX☻



Video

ID                                       : 2

Format                                   : AVC

Format/Info                              : Advanced Video Codec

Format profile                           : [email protected]

Format settings, CABAC                   : Yes

Format settings, ReFrames                : 2 frames

Format settings, GOP                     : M=1, N=12

Codec ID                                 : V_MPEG4/ISO/AVC

Duration                                 : 2 h 21 min

Bit rate                                 : 625 kb/s

Width                                    : 700 pixels

Height                                   : 298 pixels

Display aspect ratio                     : 2.35:1

Frame rate mode                          : Constant

Frame rate                               : 25.000 FPS

Color space                              : YUV

Chroma subsampling                       : 4:2:0

Bit depth                                : 8 bits

Scan type                                : Progressive

Bits/(Pixel*Frame)                       : 0.120

Stream size                              : 631 MiB (89%)

Title                                    : ☻rDX☻

Default                                  : Yes

Forced                                   : No



Audio

ID                                       : 1

Format                                   : AC-3

Format/Info                              : Audio Coding 3

Mode extension                           : CM (complete main)

Format settings, Endianness              : Big

Codec ID                                 : A_AC3

Duration                                 : 2 h 21 min

Bit rate mode                            : Constant

Bit rate                                 : 64.0 kb/s

Channel(s)                               : 2 channels

Channel positions                        : Front: L R

Sampling rate                            : 44.1 kHz

Frame rate                               : 28.711 FPS (1536 spf)

Bit depth                                : 16 bits

Compression mode                         : Lossy

Stream size                              : 64.6 MiB (9%)

Title                                    : ☻rDX☻

Default                                  : Yes

Forced                                   : No



https://www.imdb.com/title/tt7255568/

Discussion

Comments 0

Post Your Comment

Torrent Files (Unavailable)

Please check back later to get a list of all files included in this torrent.

Alternative Torrents for 'Student Of Year Hindi Movies PDVDRip Clean Audio with Sample ☻rDX☻'.

There are no alternative torrents found.