Warning! Do NOT Download Without a VPN!
Your IP Address is .   Location is United States
Your Internet Provider and Government can track your download activities! Hide your IP ADDRESS with a VPN!
We strongly recommend using a VPN service to anonymize your torrent downloads. It's FREE!
START YOUR FREE TRIAL NOW!

Shazam 2019 KORSUB HDRip X264-STUTTERSHIT

Torrent Details

Shazam 2019 KORSUB HDRip x264-STUTTERSHIT

NAME
Shazam 2019 KORSUB HDRip x264-STUTTERSHIT.torrent
CATEGORY
Movies
INFOHASH
43c1c31fd775b41acdb4588655d457a05510723e
SIZE
1.2 GB in 2 files
ADDED
Uploaded on 11-05-2019 by our crawler pet called "Spidey".
SWARM
266 seeders & 80 peers
RATING
No votes yet.

Please login to vote for this torrent.


Description





Plot: In Philadelphia, Billy Batson is an abandoned child who is proving a nuisance to Child Services and the authorities with his stubborn search for his lost mother. However, in his latest foster home, Billy makes a new friend, Freddy, and finds himself selected by the Wizard Shazam to be his new champion. Now endowed with the ability to instantly become an adult superhero by speaking the wizard’s name, Billy gleefully explores his new powers with Freddy. However, Billy soon learns that he has a deadly enemy, Dr. Thaddeus Sivana, who was previously rejected by the wizard and has accepted the power of the Seven Deadly Sins instead. Now pursued by this mad scientist for his own power as well, Billy must face up to the responsibilities of his calling while learning the power of a special magic with his true family that Sivana can never understand.



MediaInfo « 

Video

ID : 1

Format : AVC

Format/Info : Advanced Video Codec

Format profile : [email protected]

Format settings : CABAC / 5 Ref Frames

Format settings, CABAC : Yes

Format settings, ReFrames : 5 frames

Codec ID : avc1

Codec ID/Info : Advanced Video Coding

Duration : 2 h 10 min

Bit rate : 1 100 kb/s

Width : 720 pixels

Height : 300 pixels

Display aspect ratio : 2.40:1

Frame rate mode : Constant

Frame rate : 30.000 FPS

Color space : YUV

Chroma subsampling : 4:2:0

Bit depth : 8 bits

Scan type : Progressive

Bits/(Pixel*Frame) : 0.170

Stream size : 1 019 MiB (81%)

Title : Shazam.2019.KORSUB.HDRip.x264-STUTTERSHIT

Writing library : x264 core 148 r2795M aaa9aa8

Encoding settings : cabac=1 / ref=5 / deblock=1:-1:-1 / analyse=0x3:0x113 / me=umh / subme=9 / psy=1 / psy_rd=1.00:0.15 / mixed_ref=1 / me_range=16 / chroma_me=1 / trellis=2 / 8x8dct=1 / cqm=0 / deadzone=21,11 / fast_pskip=1 / chroma_qp_offset=-3 / threads=24 / lookahead_threads=2 / sliced_threads=0 / nr=0 / decimate=1 / interlaced=0 / bluray_compat=0 / constrained_intra=0 / bframes=3 / b_pyramid=2 / b_adapt=2 / b_bias=0 / direct=3 / weightb=1 / open_gop=0 / weightp=2 / keyint=250 / keyint_min=25 / scenecut=40 / intra_refresh=0 / rc_lookahead=50 / rc=abr / mbtree=1 / bitrate=1100 / ratetol=1.0 / qcomp=0.60 / qpmin=0 / qpmax=69 / qpstep=4 / ip_ratio=1.40 / aq=1:1.00

Codec configuration box : avcC



Audio

ID : 2

Format : AAC LC

Format/Info : Advanced Audio Codec Low Complexity

Codec ID : mp4a-40-2

Duration : 2 h 10 min

Duration_LastFrame : -11 ms

Bit rate mode : Constant

Bit rate : 256 kb/s

Channel(s) : 2 channels

Channel layout : L R

Sampling rate : 48.0 kHz

Frame rate : 46.875 FPS (1024 SPF)

Compression mode : Lossy

Stream size : 239 MiB (19%)

Title : Shazam.2019.KORSUB.HDRip.x264-STUTTERSHIT

Language : English

Default : Yes

Alternate group : 1



Notes : Video stutters and has pixelization in multiple scenes.



''

''

Discussion

Comments 0

Post Your Comment

Files in this torrent

FILENAMESIZE
RARBG.txt31 B
Shazam.2019.KORSUB.HDRip.x264-STUTTERSHIT.mp41.2 GB

Alternative Torrents for 'Shazam'.

TORRENT NAME ADDED SIZE SEEDS PEERS HEALTH
5/26/2019 2.2 GB 931 12
5/10/2019 3.8 GB 771 78
5/10/2019 1.4 GB 681 78
5/11/2019 3.8 GB 569 180
5/10/2019 1.4 GB 543 31
4/12/2019 1.5 GB 522 11
5/10/2019 1.1 GB 476 44
6/13/2019 3.8 GB 463 36
5/10/2019 2.5 GB 376 25
5/19/2019 1.7 GB 331 16
5/16/2019 2.4 GB 227 24
5/20/2019 1.5 GB 173 10
3/22/2019 1.6 GB 152 8
5/10/2019 3.8 GB 148 33