The Cool Kids S01 1080p TVShows

Torrent Details

The Cool Kids S01 1080p TVShows

NAME
The Cool Kids S01 1080p TVShows.torrent
CATEGORY
Television
INFOHASH
1db4ee5a5bace4099999e428dfac156303248ac8
SIZE
36 GB in 22 files
ADDED
Uploaded on 15-05-2019 by our crawler pet called "Spidey".
SWARM
0 seeders & 0 peers
RATING
No votes yet.

Please login to vote for this torrent.


Description

Крутые ребята / The Cool Kids



Страна: США

Производство: 3 Arts Entertainment, 20th Century Fox Television, RCG Productions

Год выпуска: 2018-2019

Жанр: комедия

Продолжительность: 22х ~00:22:00



Режиссеры: Фред Сэвэдж, Джонатан Джадж, Фил Льюис

В ролях: Дэвид Алан Грир, Мартин Мулл, Лесли Джордан, Вики Лоуренс, Джейми Фарр, Артемис Пебдани, Джер Бернс, Род МакКери



Описание: В центре истории — трое товарищей из дома престарелых, чей незыблемый авторитет пошатнулся с появлением новенькой бабули-бунтарки, преисполненной решимости свергнуть зарвавшихся дедов...





Перевод: Профессиональный (многоголосый, закадровый) | TVShows

Субтитры: английские



Качество: WEB-DL 1080p

Формат: МКV

Видео кодек: AVC

Аудио кодек: АС3 | E-AC3

Видео: 1920x1080 (16:9), 23.976 fps, MPEG-4 AVC ~8 260 kbps avg

Аудио №1: 48.0 kHz, AC3 Dolby Digital, 3/2 (L,C,R,l,r) + LFE ch, ~384 kbps | RUS / MVO

Аудио №2: 48.0 kHz, Enhanced Audio Coding 3, 3/2 (L,C,R,l,r) + LFE ch, ~640 kbps | ENG

Формат субтитров: UTF-8 Plain Text



Дата премьеры (мир): 28 сентября 2018







Media InfoGeneral

Format : Matroska

Format version : Version 4 / Version 2

File size : 1.40 GiB

Duration : 21 min 40 s

Overall bit rate : 9 277 kb/s

Encoded date : UTC 2018-10-25 10:35:54

Writing application : mkvmerge v24.0.0 ('Beyond The Pale') 64-bit

Writing library : libebml v1.3.6 + libmatroska v1.4.9



Video

ID : 1

Format : AVC

Format/Info : Advanced Video Codec

Format profile : [email protected]

Format settings : CABAC / 4 Ref Frames

Format settings, CABAC : Yes

Format settings, ReFrames : 4 frames

Codec ID : V_MPEG4/ISO/AVC

Duration : 21 min 38 s

Bit rate : 8 264 kb/s

Width : 1 920 pixels

Height : 1 080 pixels

Display aspect ratio : 16:9

Frame rate mode : Constant

Frame rate : 23.976 (24000/1001) FPS

Color space : YUV

Chroma subsampling : 4:2:0

Bit depth : 8 bits

Scan type : Progressive

Bits/(Pixel*Frame) : 0.166

Stream size : 1.25 GiB (89%)

Language : English

Default : Yes

Forced : No

Color range : Limited

Color primaries : BT.709

Transfer characteristics : BT.709

Matrix coefficients : BT.709



Audio #1

ID : 2

Format : AC-3

Format/Info : Audio Coding 3

Codec ID : A_AC3

Duration : 21 min 38 s

Bit rate mode : Constant

Bit rate : 384 kb/s

Channel(s) : 6 channels

Channel positions : Front: L C R, Side: L R, LFE

Sampling rate : 48.0 kHz

Frame rate : 31.250 FPS (1536 SPF)

Bit depth : 16 bits

Compression mode : Lossy

Stream size : 59.5 MiB (4%)

Title : TVShows

Language : Russian

Service kind : Complete Main

Default : Yes

Forced : Yes



Audio #2

ID : 3

Format : E-AC-3

Format/Info : Enhanced Audio Coding 3

Codec ID : A_EAC3

Duration : 21 min 38 s

Bit rate mode : Constant

Bit rate : 640 kb/s

Channel(s) : 6 channels

Channel positions : Front: L C R, Side: L R, LFE

Sampling rate : 48.0 kHz

Frame rate : 187.500 FPS (256 SPF)

Compression mode : Lossy

Delay relative to video : 22 ms

Stream size : 99.1 MiB (7%)

Title : Original

Language : English

Service kind : Complete Main

Default : No

Forced : No



Text

ID : 4

Format : UTF-8

Codec ID : S_TEXT/UTF8

Codec ID/Info : UTF-8 Plain Text

Duration : 21 min 40 s

Bit rate : 99 b/s

Count of elements : 493

Stream size : 15.8 KiB (0%)

Title : English

Language : English

Default : No

Forced : NoСкриншоты

Discussion

Comments 0

Post Your Comment

Files in this torrent

FILENAMESIZE
The.Cool.Kids.S01E01.1080p.TVShows.mkv1.4 GB
The.Cool.Kids.S01E02.1080p.TVShows.mkv1.6 GB
The.Cool.Kids.S01E03.1080p.TVShows.mkv1.4 GB
The.Cool.Kids.S01E04.1080p.TVShows.mkv1.7 GB
The.Cool.Kids.S01E05.1080p.TVShows.mkv1.5 GB
The.Cool.Kids.S01E06.1080p.TVShows.mkv1.6 GB
The.Cool.Kids.S01E07.1080p.TVShows.mkv1.8 GB
The.Cool.Kids.S01E08.1080p.TVShows.mkv2 GB
The.Cool.Kids.S01E09.1080p.TVShows.mkv1.6 GB
The.Cool.Kids.S01E10.1080p.TVShows.mkv1.5 GB
The.Cool.Kids.S01E11.1080p.TVShows.mkv1.7 GB
The.Cool.Kids.S01E12.1080p.TVShows.mkv1.8 GB
The.Cool.Kids.S01E13.1080p.TVShows.mkv1.8 GB
The.Cool.Kids.S01E14.1080p.TVShows.mkv1.6 GB
The.Cool.Kids.S01E15.1080p.TVShows.mkv1.7 GB
The.Cool.Kids.S01E16.1080p.TVShows.mkv1.6 GB
The.Cool.Kids.S01E17.1080p.TVShows.mkv1.7 GB
The.Cool.Kids.S01E18.1080p.TVShows.mkv1.7 GB
The.Cool.Kids.S01E19.1080p.TVShows.mkv1.9 GB
The.Cool.Kids.S01E20.1080p.TVShows.mkv1.9 GB
The.Cool.Kids.S01E21.1080p.TVShows.mkv1.7 GB
The.Cool.Kids.S01E22.1080p.TVShows.mkv809 MB

Alternative Torrents for 'Cool Kids TVShows'.

TORRENT NAMEADDEDSIZESEEDSPEERSHEALTH
5/15/201936 GB00
5/15/201918.1 GB00
4/14/201931.7 GB00
4/14/201915.9 GB00